<?xml version="1.0" standalone="no"?>
<!DOCTYPE svg PUBLIC "-//W3C//DTD SVG 1.1//EN" "http://www.w3.org/Graphics/SVG/1.1/DTD/svg11.dtd" >
<svg xmlns="http://www.w3.org/2000/svg">
<metadata>
Generated by SVGconv.
Copyright   : Copyright (c) 2013 by Gayane Bagdasaryan, Dmitry Rastvortsev. All rights reserved.
Designer    : Gayane Bagdasaryan, Dmitry Rastvortsev
Foundry     : Gayane Bagdasaryan, Dmitry Rastvortsev
Foundry URL : http://www.brownfox.org
</metadata>
<defs>
<font id="BrutalType-Medium" horiz-adv-x="568" >
<font-face units-per-em="1000" ascent="955" descent="277" />
<missing-glyph horiz-adv-x="500" />
<glyph unicode="&#13;" horiz-adv-x="240" />
<glyph unicode="&#32;" horiz-adv-x="240" />
<glyph unicode="&#33;" horiz-adv-x="296" d="M90 123h116v-123h-116zM93 700h110v-480l-110 0z" />
<glyph unicode="&#34;" horiz-adv-x="401" d="M50 660v45h120v-45l-20 -204h-80zM231 660v45h120v-45l-20 -204l-80 0z" />
<glyph unicode="&#35;" horiz-adv-x="685" d="M100 40l26 128h-86v100h107l34 164h-96v100h117l35 168h98v-40l-27 -128h144l35 168h98v-40l-27 -128h87v-100h-108l-34 -164h97v-100h-117l-35 -168h-98v40l26 128h-143l-35 -168h-98zM397 268l34 164h-144l-34 -164z" />
<glyph unicode="&#36;" horiz-adv-x="602" d="M155 227q0 -41 12.5 -68q12.5 -27 33.5 -43.5q21 -16.5 48 -23.5q27 -7 55 -7q60 0 91 28q31 28 31 70q0 21 -8 36q-8 15 -22 26q-14 11 -32.5 20.5q-18.5 9.5 -40.5 18.5l-56 24q-50 21 -88 40q-38 19 -63.5 42q-25.5 23 -38.5 53.5q-13 30.5 -13 74.5q0 39 13.5 72q13.5 33 37.5 58.5q24 25.5 58 42q34 16.5 75 21.5l0 91h110v-94q34 -8 66 -25q32 -17 57 -45.5q25 -28.5 40 -68q15 -39.5 15 -91.5l-110 0q0 38 -10.5 64q-10.5 26 -28.5 42q-18 16 -42.5 23q-24.5 7 -51.5 7q-53 0 -84.5 -25q-31.5 -25 -31.5 -67q0 -24 8.5 -40q8.5 -16 24.5 -28q16 -12 40 -23q24 -11 56 -24l57 -24q39 -16 71.5 -33q32.5 -17 56.5 -39q24 -22 37.5 -51q13.5 -29 13.5 -69q0 -38 -11 -72q-11 -34 -33.5 -61q-22.5 -27 -57 -45q-34.5 -18 -82.5 -25l0 -106h-110v105q-42 5 -78.5 22q-36.5 17 -64.5 46.5q-28 29.5 -44 72q-16 42.5 -16 98.5z" />
<glyph unicode="&#37;" horiz-adv-x="792" d="M195 434q29 0 43.5 17q14.5 17 14.5 41v86q0 24 -14.5 41q-14.5 17 -43.5 17q-29 0 -43.5 -17q-14.5 -17 -14.5 -41v-86q0 -24 14.5 -41q14.5 -17 43.5 -17zt0 0zM195 355q-72 0 -113.5 38.5q-41.5 38.5 -41.5 113.5v56q0 75 41.5 113.5q41.5 38.5 113.5 38.5q72 0 113.5 -38.5q41.5 -38.5 41.5 -113.5v-56q0 -75 -41.5 -113.5q-41.5 -38.5 -113.5 -38.5zt0 0zM597 64q29 0 43.5 17q14.5 17 14.5 41v86q0 24 -14.5 41q-14.5 17 -43.5 17q-29 0 -43.5 -17q-14.5 -17 -14.5 -41v-86q0 -24 14.5 -41q14.5 -17 43.5 -17zt0 0zM597 -15q-72 0 -113.5 38.5q-41.5 38.5 -41.5 113.5v56q0 75 41.5 113.5q41.5 38.5 113.5 38.5q72 0 113.5 -38.5q41.5 -38.5 41.5 -113.5v-56q0 -75 -41.5 -113.5q-41.5 -38.5 -113.5 -38.5zt0 0zM150 40l405 660h85v-40l-405 -660l-85 0z" />
<glyph unicode="&#38;" horiz-adv-x="685" d="M482 66q-38 -36 -88.5 -57q-50.5 -21 -114.5 -21q-53 0 -95.5 14q-42.5 14 -72 38.5q-29.5 24.5 -45.5 59.5q-16 35 -16 77q0 28 5.5 51.5q5.5 23.5 18.5 46q13 22.5 34 45q21 22.5 52 47.5l15 12l-14 14q-12 14 -25 29q-13 15 -24 33q-11 18 -18 40q-7 22 -7 49q0 36 13.5 66q13.5 30 38 51.5q24.5 21.5 57.5 33.5q33 12 72 12q37 0 69 -11q32 -11 54.5 -32q22.5 -21 35.5 -51q13 -30 13 -69q0 -46 -23.5 -82q-23.5 -36 -55.5 -62l-32 -26l142 -145q24 60 24 136l104 0q0 -57 -13 -111.5q-13 -54.5 -39 -102.5l98 -99v-52h-97zM282 87q40 0 72.5 13.5q32.5 13.5 57.5 36.5l-166 170l-36 -29q-29 -23 -39.5 -44.5q-10.5 -21.5 -10.5 -45.5q0 -45 33.5 -73q33.5 -28 88.5 -28zt0 0zM197 543q0 -21 8.5 -36q8.5 -15 31.5 -38l22 -23l34 27q20 16 30.5 33q10.5 17 10.5 42q0 29 -20.5 45q-20.5 16 -46.5 16q-32 0 -51 -18.5t-19 -47.5z" />
<glyph unicode="&#39;" horiz-adv-x="220" d="M50 660v45h120v-45l-20 -204l-80 0z" />
<glyph unicode="&#40;" horiz-adv-x="315" d="M275 -160q-86 0 -135.5 49.5q-49.5 49.5 -49.5 142.5v542q0 93 49.5 142.5q49.5 49.5 135.5 49.5l0 -100q-37 0 -56 -25.5q-19 -25.5 -19 -60.5v-554q0 -35 19 -60.5q19 -25.5 56 -25.5l0 -100z" />
<glyph unicode="&#41;" horiz-adv-x="315" d="M40 -160q86 0 135.5 49.5q49.5 49.5 49.5 142.5v542q0 93 -49.5 142.5q-49.5 49.5 -135.5 49.5l0 -100q37 0 56 -25.5q19 -25.5 19 -60.5v-554q0 -35 -19 -60.5q-19 -25.5 -56 -25.5l0 -100z" />
<glyph unicode="&#42;" horiz-adv-x="445" d="M186 457l-103 -69l-43 76l111 55l-111 55l43 76l103 -69l-7 124h87l-8 -124l104 69l43 -76l-112 -55l112 -55l-43 -76l-104 69l8 -124l-87 0z" />
<glyph unicode="&#43;" horiz-adv-x="560" d="M230 267h-170v92h170v171h100v-171h170v-92h-170v-171l-100 0z" />
<glyph unicode="&#44;" horiz-adv-x="266" d="M83 136h122v-52l-82 -197l-87 0z" />
<glyph unicode="&#45;" horiz-adv-x="442" d="M60 363h322v-100l-322 0z" />
<glyph unicode="&#46;" horiz-adv-x="275" d="M70 136h135v-136l-135 0z" />
<glyph unicode="&#47;" horiz-adv-x="465" d="M40 -60l287 826h98v-40l-287 -826l-98 0z" />
<glyph unicode="&#48;" horiz-adv-x="610" d="M305 85q31 0 54.5 11q23.5 11 39 29.5q15.5 18.5 23.5 43q8 24.5 8 52.5v258q0 28 -8 52.5q-8 24.5 -23.5 43q-15.5 18.5 -39 29.5q-23.5 11 -54.5 11q-31 0 -54.5 -11q-23.5 -11 -39 -29.5q-15.5 -18.5 -23.5 -43q-8 -24.5 -8 -52.5v-258q0 -28 8 -52.5q8 -24.5 23.5 -43q15.5 -18.5 39 -29.5q23.5 -11 54.5 -11zt0 0zM305 -15q-54 0 -97.5 16.5q-43.5 16.5 -74 47.5q-30.5 31 -47 76q-16.5 45 -16.5 102v246q0 57 16.5 102q16.5 45 47 76q30.5 31 74 47.5q43.5 16.5 97.5 16.5q54 0 97.5 -16.5q43.5 -16.5 74 -47.5q30.5 -31 47 -76q16.5 -45 16.5 -102v-246q0 -57 -16.5 -102q-16.5 -45 -47 -76q-30.5 -31 -74 -47.5t-97.5 -16.5z" />
<glyph unicode="&#49;" horiz-adv-x="313" d="M113 551h-73v58l139 91h44v-700l-110 0z" />
<glyph unicode="&#50;" horiz-adv-x="561" d="M50 90l211 214q33 33 56.5 58.5q23.5 25.5 39 47.5q15.5 22 22.5 43q7 21 7 46q0 23 -6.5 44q-6.5 21 -20 37q-13.5 16 -35 25.5q-21.5 9.5 -50.5 9.5q-32 0 -54 -10.5q-22 -10.5 -36.5 -29q-14.5 -18.5 -21.5 -43.5q-7 -25 -7 -54l-105 0q1 56 17.5 100q16.5 44 46.5 74.5q30 30.5 70.5 46.5q40.5 16 89.5 16q55 0 96.5 -17q41.5 -17 69.5 -46.5q28 -29.5 42 -68q14 -38.5 14 -80.5q0 -40 -11 -73.5q-11 -33.5 -31 -64q-20 -30.5 -48 -60.5q-28 -30 -62 -63l-145 -142h300v-100l-449 0z" />
<glyph unicode="&#51;" horiz-adv-x="585" d="M287 -15q-109 0 -173 62q-64 62 -66 175l106 0q2 -60 36 -98.5q34 -38.5 100 -38.5q66 0 95.5 35q29.5 35 29.5 88q0 51 -32.5 78q-32.5 27 -90.5 27h-49v100h42q51 0 81.5 24q30.5 24 30.5 75q0 18 -5.5 36.5q-5.5 18.5 -18.5 33q-13 14.5 -33.5 24q-20.5 9.5 -51.5 9.5q-62 0 -90.5 -37.5q-28.5 -37.5 -29.5 -96.5l-105 0q2 114 61.5 174q59.5 60 162.5 60q53 0 93.5 -15q40.5 -15 68.5 -41q28 -26 42 -61q14 -35 14 -75q0 -58 -25 -95q-25 -37 -65 -60q45 -17 77.5 -61q32.5 -44 32.5 -108q0 -100 -62 -157t-176 -57z" />
<glyph unicode="&#52;" horiz-adv-x="553" d="M340 138h-310v85l244 477h97v-40l-216 -422h185v173h110v-173h83v-100h-83v-138l-110 0z" />
<glyph unicode="&#53;" horiz-adv-x="595" d="M299 -15q-98 0 -162 54q-64 54 -75 153l108 0q7 -48 41.5 -77.5q34.5 -29.5 89.5 -29.5q64 0 94 41q30 41 30 110q0 67 -33 105.5q-33 38.5 -88 38.5q-44 0 -70.5 -18.5q-26.5 -18.5 -40.5 -38.5l-109 0l35 377h377v-100h-287l-16 -168q28 18 57 28q29 10 74 10q41 0 79 -12.5q38 -12.5 67.5 -40.5q29.5 -28 47 -72.5q17.5 -44.5 17.5 -108.5q0 -61 -17 -107.5q-17 -46.5 -48 -78.5q-31 -32 -74.5 -48.5t-96.5 -16.5z" />
<glyph unicode="&#54;" horiz-adv-x="590" d="M300 -15q-55 0 -99.5 16.5q-44.5 16.5 -75.5 47.5q-31 31 -48 76q-17 45 -17 102q0 41 16.5 84.5q16.5 43.5 51.5 99.5l181 289h101v-40l-149 -230q16 6 36 10q20 4 46 4q40 0 76 -14q36 -14 63 -41.5q27 -27.5 42.5 -68q15.5 -40.5 15.5 -93.5q0 -57 -17 -102q-17 -45 -48 -76q-31 -31 -75.5 -47.5q-44.5 -16.5 -99.5 -16.5zt0 0zM300 85q65 0 97.5 37.5q32.5 37.5 32.5 98.5q0 61 -31.5 97.5q-31.5 36.5 -98.5 36.5q-67 0 -98.5 -37q-31.5 -37 -31.5 -97q0 -61 32.5 -98.5t97.5 -37.5z" />
<glyph unicode="&#55;" horiz-adv-x="539" d="M161 40l214 560h-233v-100h-102v200h449v-93l-229 -607l-99 0z" />
<glyph unicode="&#56;" horiz-adv-x="614" d="M307 -15q-118 0 -182.5 56.5q-64.5 56.5 -64.5 154.5q0 31 9.5 59q9.5 28 25 50q15.5 22 36 38q20.5 16 43.5 24q-20 12 -37.5 26q-17.5 14 -30 32.5q-12.5 18.5 -20 42.5q-7.5 24 -7.5 54q0 39 15 74.5q15 35.5 43.5 61.5q28.5 26 71 41.5q42.5 15.5 98.5 15.5q55 0 98 -15.5q43 -15.5 71.5 -41.5q28.5 -26 43.5 -61.5q15 -35.5 15 -74.5q0 -30 -7 -54q-7 -24 -20 -42.5q-13 -18.5 -30 -32.5q-17 -14 -37 -26q22 -8 42.5 -24q20.5 -16 36.5 -38q16 -22 25 -50q9 -28 9 -59q0 -98 -64.5 -154.5q-64.5 -56.5 -182.5 -56.5zt0 0zM307 83q35 0 61 9.5q26 9.5 42.5 26q16.5 16.5 24.5 38.5q8 22 8 47q0 23 -9 44.5q-9 21.5 -26.5 38q-17.5 16.5 -43 26.5q-25.5 10 -57.5 10q-32 0 -57.5 -10q-25.5 -10 -43 -26.5q-17.5 -16.5 -26.5 -38q-9 -21.5 -9 -44.5q0 -25 8 -47q8 -22 24.5 -38.5q16.5 -16.5 42.5 -26q26 -9.5 61 -9.5zt0 0zM307 407q53 0 86 29.5q33 29.5 33 77.5q0 45 -28.5 75q-28.5 30 -90.5 30q-61 0 -90 -30q-29 -30 -29 -75q0 -48 33 -77.5t86 -29.5z" />
<glyph unicode="&#57;" horiz-adv-x="590" d="M290 715q55 0 99.5 -16.5q44.5 -16.5 75.5 -47.5q31 -31 48 -76q17 -45 17 -102q0 -41 -16.5 -84.5q-16.5 -43.5 -51.5 -99.5l-181 -289h-101v40l149 230q-16 -6 -36 -10q-20 -4 -46 -4q-40 0 -76 14q-36 14 -63 41.5q-27 27.5 -42.5 68q-15.5 40.5 -15.5 93.5q0 57 17 102q17 45 48 76q31 31 75.5 47.5q44.5 16.5 99.5 16.5zt0 0zM290 615q-65 0 -97.5 -37.5q-32.5 -37.5 -32.5 -98.5q0 -61 31.5 -97.5q31.5 -36.5 98.5 -36.5q67 0 98.5 37q31.5 37 31.5 97q0 61 -32.5 98.5t-97.5 37.5z" />
<glyph unicode="&#58;" horiz-adv-x="275" d="M70 136h135v-136h-135zM70 520h135v-136l-135 0z" />
<glyph unicode="&#59;" horiz-adv-x="271" d="M83 136h122v-52l-82 -197h-87zM75 520h135v-136l-135 0z" />
<glyph unicode="&#60;" horiz-adv-x="520" d="M60 272v90l347 182h53v-78l-291 -149l291 -149v-78l-53 0z" />
<glyph unicode="&#61;" horiz-adv-x="560" d="M60 251h440v-92h-440zM60 467h440v-92l-440 0z" />
<glyph unicode="&#62;" horiz-adv-x="520" d="M60 168l291 149l-291 149v78h53l347 -182v-90l-347 -182l-53 0z" />
<glyph unicode="&#63;" horiz-adv-x="520" d="M194 332l93 66q19 14 34.5 25.5q15.5 11.5 26.5 24.5q11 13 16.5 29.5q5.5 16.5 5.5 39.5q0 18 -6.5 35.5q-6.5 17.5 -19.5 31.5q-13 14 -33.5 22.5q-20.5 8.5 -48.5 8.5q-60 0 -93.5 -35.5q-33.5 -35.5 -33.5 -97.5l-105 0q0 57 18 100.5q18 43.5 49 73q31 29.5 73.5 44.5q42.5 15 91.5 15q55 0 96 -16.5q41 -16.5 68 -43.5q27 -27 40.5 -62.5q13.5 -35.5 13.5 -73.5q0 -41 -13.5 -72q-13.5 -31 -34.5 -55q-21 -24 -46 -41.5q-25 -17.5 -47 -32.5l-35 -24v-74h-110zM191 123h116v-123l-116 0z" />
<glyph unicode="&#64;" horiz-adv-x="996" d="M507 -151q-97 0 -177.5 32q-80.5 32 -138 89.5q-57.5 57.5 -89.5 137q-32 79.5 -32 174.5q0 97 32 177q32 80 89.5 137q57.5 57 138 88q80.5 31 177.5 31q88 0 164.5 -27.5q76.5 -27.5 133 -78.5q56.5 -51 89 -123.5q32.5 -72.5 32.5 -163.5q0 -60 -13.5 -108q-13.5 -48 -39 -81.5q-25.5 -33.5 -61.5 -52q-36 -18.5 -80 -18.5q-41 0 -74 14q-33 14 -55 56q-21 -29 -55 -49.5q-34 -20.5 -83 -20.5q-33 0 -62.5 10.5q-29.5 10.5 -51.5 31q-22 20.5 -35 51q-13 30.5 -13 71.5v112q0 40 13 71q13 31 35 51.5q22 20.5 51.5 31q29.5 10.5 62.5 10.5q49 0 82.5 -21q33.5 -21 50.5 -44l40 55h47v-281q0 -25 13 -42.5q13 -17.5 43 -17.5q19 0 36 8.5q17 8.5 29.5 28.5q12.5 20 19.5 52.5q7 32.5 7 81.5q0 73 -26 130.5q-26 57.5 -70.5 97.5q-44.5 40 -104 61.5q-59.5 21.5 -125.5 21.5q-75 0 -138 -24.5q-63 -24.5 -108.5 -70.5q-45.5 -46 -71 -110.5q-25.5 -64.5 -25.5 -144.5q0 -80 25.5 -144.5q25.5 -64.5 71 -110.5q45.5 -46 108.5 -70.5q63 -24.5 138 -24.5h25v-84zM485 151q38 0 62.5 15q24.5 15 42.5 36l0 155q-18 23 -40.5 39.5q-22.5 16.5 -64.5 16.5q-36 0 -61.5 -25.5q-25.5 -25.5 -25.5 -65.5v-80q0 -40 25.5 -65.5t61.5 -25.5z" />
<glyph unicode="&#65;" horiz-adv-x="658" d="M20 40l250 660h118l250 -660v-40h-118l-62 173h-264l-63 -173h-111zM422 273l-95 267l-97 -267z" />
<glyph unicode="&#66;" horiz-adv-x="662" d="M90 700h295q93 0 146.5 -46.5q53.5 -46.5 53.5 -141.5q0 -59 -22 -94q-22 -35 -62 -55q23 -8 43 -21q20 -13 35 -33.5q15 -20.5 24 -48.5q9 -28 9 -66q0 -97 -53 -145.5q-53 -48.5 -147 -48.5h-322zM392 105q100 0 100 96q0 48 -24.5 73.5q-24.5 25.5 -75.5 25.5h-182v-195zM365 400q50 0 74.5 25q24.5 25 24.5 73q0 97 -99 97h-155l0 -195z" />
<glyph unicode="&#67;" horiz-adv-x="660" d="M342 -15q-131 0 -201.5 66q-70.5 66 -70.5 186v226q0 120 70.5 186q70.5 66 201.5 66q51 0 98 -14q47 -14 82.5 -43.5q35.5 -29.5 56.5 -75.5q21 -46 21 -109v-10h-120v10q0 35 -13 60q-13 25 -33.5 41q-20.5 16 -45 23.5q-24.5 7.5 -47.5 7.5q-78 0 -114.5 -35.5q-36.5 -35.5 -36.5 -98.5v-242q0 -63 36.5 -98.5q36.5 -35.5 114.5 -35.5q23 0 47.5 7.5q24.5 7.5 45 23.5q20.5 16 33.5 41q13 25 13 60v10h120v-10q0 -63 -21 -109q-21 -46 -56.5 -75.5q-35.5 -29.5 -82.5 -43.5t-98 -14z" />
<glyph unicode="&#68;" horiz-adv-x="685" d="M340 105q38 0 67 10.5q29 10.5 48.5 28.5q19.5 18 29.5 42.5q10 24.5 10 52.5v222q0 28 -10 52.5q-10 24.5 -29.5 42.5q-19.5 18 -48.5 28.5q-29 10.5 -67 10.5h-130v-490zM90 700h250q63 0 114 -16q51 -16 86.5 -47q35.5 -31 55 -76q19.5 -45 19.5 -103v-216q0 -58 -19.5 -103q-19.5 -45 -55 -76q-35.5 -31 -86.5 -47q-51 -16 -114 -16l-250 0z" />
<glyph unicode="&#69;" horiz-adv-x="590" d="M90 700h449v-105h-329v-194h282v-100h-282v-196h330v-105l-450 0z" />
<glyph unicode="&#70;" horiz-adv-x="585" d="M90 700h455v-105h-335v-201h287v-100h-287v-294l-120 0z" />
<glyph unicode="&#71;" horiz-adv-x="690" d="M331 -15q-121 0 -191 65q-70 65 -70 184v229q0 120 73 186q73 66 204 66q51 0 98.5 -14q47.5 -14 84 -43.5q36.5 -29.5 58.5 -74.5q22 -45 22 -106v-4h-120v4q0 58 -39 93q-39 35 -109 35q-70 0 -111 -35.5q-41 -35.5 -41 -98.5v-237q0 -66 38.5 -102.5q38.5 -36.5 109.5 -36.5q49 0 89 22q40 22 63 63l0 90h-138v100h258v-370h-65l-36 66q-66 -81 -178 -81z" />
<glyph unicode="&#72;" horiz-adv-x="710" d="M90 700h120v-297h290v297h120v-700h-120v298h-290v-298l-120 0z" />
<glyph unicode="&#73;" horiz-adv-x="300" d="M90 700h120v-700l-120 0z" />
<glyph unicode="&#74;" horiz-adv-x="580" d="M260 -15q-51 0 -95 11.5q-44 11.5 -76.5 38q-32.5 26.5 -50.5 68.5q-18 42 -18 104v30h120v-30q0 -60 32.5 -86q32.5 -26 87.5 -26q24 0 45.5 6.5q21.5 6.5 38 20.5q16.5 14 26.5 36q10 22 10 53v489h120v-493q0 -60 -19 -102q-19 -42 -51.5 -68.5q-32.5 -26.5 -76 -39t-93.5 -12.5z" />
<glyph unicode="&#75;" horiz-adv-x="627" d="M90 700h120v-297h89l183 297h111v-40l-189 -303l203 -317v-40h-118l-190 298h-89v-298l-120 0z" />
<glyph unicode="&#76;" horiz-adv-x="565" d="M90 700h120v-595h335v-105l-455 0z" />
<glyph unicode="&#77;" horiz-adv-x="810" d="M367 226l-161 261v-487h-116v700h116l201 -327l201 327h112v-700h-116v487l-160 -261z" />
<glyph unicode="&#78;" horiz-adv-x="710" d="M90 700h110l300 -477v477h120v-700h-110l-300 477v-477l-120 0z" />
<glyph unicode="&#79;" horiz-adv-x="690" d="M345 95q39 0 68 10.5q29 10.5 48.5 29q19.5 18.5 29 43.5q9.5 25 9.5 53v238q0 28 -9.5 53q-9.5 25 -29 43.5q-19.5 18.5 -48.5 29q-29 10.5 -68 10.5q-39 0 -68 -10.5q-29 -10.5 -48.5 -29q-19.5 -18.5 -29 -43.5q-9.5 -25 -9.5 -53v-238q0 -28 9.5 -53q9.5 -25 29 -43.5q19.5 -18.5 48.5 -29q29 -10.5 68 -10.5zt0 0zM345 -15q-63 0 -114 17q-51 17 -86.5 49.5q-35.5 32.5 -55 79q-19.5 46.5 -19.5 106.5v226q0 60 19.5 106.5q19.5 46.5 55 79q35.5 32.5 86.5 49.5q51 17 114 17q63 0 114 -17q51 -17 86.5 -49.5q35.5 -32.5 55 -79q19.5 -46.5 19.5 -106.5v-226q0 -60 -19.5 -106.5q-19.5 -46.5 -55 -79q-35.5 -32.5 -86.5 -49.5t-114 -17z" />
<glyph unicode="&#80;" horiz-adv-x="635" d="M90 700h303q94 0 145.5 -58q51.5 -58 51.5 -157q0 -99 -51.5 -157q-51.5 -58 -145.5 -58h-183v-270h-120zM372 375q39 0 67.5 27q28.5 27 28.5 83q0 56 -28.5 83q-28.5 27 -67.5 27h-162l0 -220z" />
<glyph unicode="&#81;" horiz-adv-x="690" d="M345 -15q-63 0 -114 17q-51 17 -86.5 49.5q-35.5 32.5 -55 79q-19.5 46.5 -19.5 106.5v226q0 60 19.5 106.5q19.5 46.5 55 79q35.5 32.5 86.5 49.5q51 17 114 17q63 0 114 -17q51 -17 86.5 -49.5q35.5 -32.5 55 -79q19.5 -46.5 19.5 -106.5v-226q0 -67 -22 -113.5q-22 -46.5 -60 -78.5l82 -123v-41h-116l-75 113q-17 -4 -39 -6.5q-22 -2.5 -45 -2.5zt0 0zM345 95q39 0 68 10.5q29 10.5 48.5 29q19.5 18.5 29 43.5q9.5 25 9.5 53v238q0 28 -9.5 53q-9.5 25 -29 43.5q-19.5 18.5 -48.5 29q-29 10.5 -68 10.5q-39 0 -68 -10.5q-29 -10.5 -48.5 -29q-19.5 -18.5 -29 -43.5q-9.5 -25 -9.5 -53v-238q0 -28 9.5 -53q9.5 -25 29 -43.5q19.5 -18.5 48.5 -29t68 -10.5z" />
<glyph unicode="&#82;" horiz-adv-x="660" d="M90 700h301q104 0 157.5 -57q53.5 -57 53.5 -158q0 -69 -30 -122.5q-30 -53.5 -93 -79.5l131 -243v-40h-118l-144 269h-138v-269h-120zM369 371q53 0 82 26.5q29 26.5 29 85.5q0 59 -29 85.5q-29 26.5 -82 26.5h-159l0 -224z" />
<glyph unicode="&#83;" horiz-adv-x="642" d="M317 -15q-55 0 -104 14.5q-49 14.5 -86.5 44.5q-37.5 30 -59.5 75.5q-22 45.5 -22 107.5l120 0q0 -39 15 -64.5q15 -25.5 38.5 -40.5q23.5 -15 51.5 -21q28 -6 54 -6q65 0 98 26q33 26 33 65q0 21 -10.5 35.5q-10.5 14.5 -30.5 27q-20 12.5 -50.5 24.5q-30.5 12 -70.5 27l-16 6q-50 19 -89 37q-39 18 -67 41.5q-28 23.5 -42.5 53.5q-14.5 30 -14.5 73q0 46 17.5 83.5q17.5 37.5 50 64.5q32.5 27 79 41.5q46.5 14.5 105.5 14.5q55 0 103 -13q48 -13 82.5 -41.5q34.5 -28.5 54.5 -73.5q20 -45 20 -108l-120 0q0 35 -12 59q-12 24 -31.5 39q-19.5 15 -45 21.5q-25.5 6.5 -52.5 6.5q-60 0 -95 -24q-35 -24 -35 -61q0 -22 9 -37.5q9 -15.5 28 -27.5q19 -12 47.5 -23q28.5 -11 66.5 -24l14 -5q46 -17 88.5 -34.5q42.5 -17.5 74 -41.5q31.5 -24 50.5 -56.5q19 -32.5 19 -78.5q0 -44 -16.5 -82q-16.5 -38 -50 -66q-33.5 -28 -83 -43.5t-115.5 -15.5z" />
<glyph unicode="&#84;" horiz-adv-x="566" d="M223 595h-203v105h526v-105h-203v-595l-120 0z" />
<glyph unicode="&#85;" horiz-adv-x="690" d="M610 700v-472q0 -57 -18.5 -102.5q-18.5 -45.5 -53 -76.5q-34.5 -31 -83.5 -47.5q-49 -16.5 -110 -16.5q-61 0 -110 16.5q-49 16.5 -83.5 47.5q-34.5 31 -53 76.5q-18.5 45.5 -18.5 102.5v472h120v-478q0 -26 9 -49.5q9 -23.5 27 -40.5q18 -17 45.5 -27q27.5 -10 63.5 -10q36 0 63.5 10q27.5 10 45.5 27q18 17 27 40.5q9 23.5 9 49.5l0 478z" />
<glyph unicode="&#86;" horiz-adv-x="659" d="M20 660v40h115l197 -540l193 540h114v-40l-250 -660l-118 0z" />
<glyph unicode="&#87;" horiz-adv-x="832" d="M40 660v40h118l103 -508l120 328h76l122 -331l101 511h112v-40l-140 -660h-112l-124 336l-124 -336l-112 0z" />
<glyph unicode="&#88;" horiz-adv-x="648" d="M30 40l219 322l-202 298v40h122l155 -244l162 244h115v-40l-204 -297l221 -323v-40h-122l-175 266l-176 -266l-115 0z" />
<glyph unicode="&#89;" horiz-adv-x="614" d="M247 277l-237 383v40h118l180 -310l186 310h110v-40l-237 -378v-282l-120 0z" />
<glyph unicode="&#90;" horiz-adv-x="586" d="M40 104l358 491h-343v105h481v-103l-359 -492h369v-105l-506 0z" />
<glyph unicode="&#91;" horiz-adv-x="335" d="M90 766h205v-100h-95v-726h95v-100l-205 0z" />
<glyph unicode="&#92;" horiz-adv-x="465" d="M425 -60l-287 826h-98v-40l287 -826l98 0z" />
<glyph unicode="&#93;" horiz-adv-x="335" d="M245 766h-205v-100h95v-726h-95v-100l205 0z" />
<glyph unicode="&#94;" horiz-adv-x="525" d="M60 427l155 278h93l157 -278v-40h-94l-110 194l-107 -194l-94 0z" />
<glyph unicode="&#95;" horiz-adv-x="557" d="M-1 -38h559v-92l-559 0z" />
<glyph unicode="&#96;" horiz-adv-x="299" d="M60 692v38h99l80 -140l-89 0z" />
<glyph unicode="&#97;" horiz-adv-x="559" d="M219 -12q-35 0 -66.5 9.5q-31.5 9.5 -55.5 28.5q-24 19 -38 48q-14 29 -14 67q0 81 53 124q53 43 162 43h114v41q0 38 -23.5 60.5q-23.5 22.5 -74.5 22.5q-51 0 -74.5 -21q-23.5 -21 -23.5 -53l-107 0q0 37 12.5 69q12.5 32 37.5 55.5q25 23.5 63.5 36.5q38.5 13 91.5 13q52 0 91.5 -13q39.5 -13 65 -36.5q25.5 -23.5 38.5 -56q13 -32.5 13 -70.5v-356h-64l-42 58q-23 -27 -63 -48.5q-40 -21.5 -96 -21.5zt0 0zM241 88q43 0 76 16.5q33 16.5 57 42.5l0 77h-114q-30 0 -50.5 -6q-20.5 -6 -32.5 -16q-12 -10 -17 -23q-5 -13 -5 -26q0 -33 23.5 -49t62.5 -16z" />
<glyph unicode="&#98;" horiz-adv-x="589" d="M340 -12q-56 0 -94 21.5q-38 21.5 -61 48.5l-41 -58h-64v705h110v-236q19 23 55.5 43q36.5 20 90.5 20q39 0 73 -11.5q34 -11.5 59.5 -35q25.5 -23.5 40.5 -59.5q15 -36 15 -85v-162q0 -49 -15 -85q-15 -36 -40 -59.5q-25 -23.5 -58.5 -35q-33.5 -11.5 -70.5 -11.5zt0 0zM316 88q40 0 69 26q29 26 29 73v146q0 47 -29 73q-29 26 -68 26q-42 0 -73 -21.5q-31 -21.5 -54 -45.5l0 -210q23 -24 53.5 -45.5t72.5 -21.5z" />
<glyph unicode="&#99;" horiz-adv-x="539" d="M274 -12q-50 0 -90 13.5q-40 13.5 -68.5 38.5q-28.5 25 -43.5 61q-15 36 -15 80v158q0 44 15 80q15 36 43.5 61q28.5 25 68.5 38.5q40 13.5 90 13.5q97 0 154.5 -50q57.5 -50 57.5 -141v-6h-110v6q0 41 -26 66q-26 25 -76 25q-55 0 -81 -25q-26 -25 -26 -66v-162q0 -41 26 -66q26 -25 81 -25q50 0 76 25q26 25 26 66v9h110v-7q0 -44 -15.5 -80q-15.5 -36 -43.5 -61q-28 -25 -67 -38.5t-86 -13.5z" />
<glyph unicode="&#100;" horiz-adv-x="589" d="M249 -12q-37 0 -70.5 11.5q-33.5 11.5 -58.5 35q-25 23.5 -40 59.5q-15 36 -15 85v162q0 49 14.5 85q14.5 36 40 59.5q25.5 23.5 60 35q34.5 11.5 73.5 11.5q54 0 90.5 -20q36.5 -20 55.5 -43l0 236h110v-705h-64l-41 58q-23 -27 -61 -48.5q-38 -21.5 -94 -21.5zt0 0zM273 88q42 0 72.5 21.5q30.5 21.5 53.5 45.5l0 210q-23 24 -54 45.5q-31 21.5 -73 21.5q-39 0 -68 -26q-29 -26 -29 -73v-146q0 -47 29 -73t69 -26z" />
<glyph unicode="&#101;" horiz-adv-x="550" d="M279 -12q-102 0 -162 50q-60 50 -60 141v160q0 44 15.5 80q15.5 36 44.5 61q29 25 70 38.5q41 13.5 92 13.5q98 0 156 -50q58 -50 58 -141v-117h-326v-43q0 -41 27.5 -67q27.5 -26 84.5 -26q46 0 71 18.5q25 18.5 32 50.5l110 0q-8 -79 -62.5 -124q-54.5 -45 -150.5 -45zt0 0zM383 308v33q0 41 -27 66q-27 25 -81 25q-54 0 -81 -25q-27 -25 -27 -66l0 -33z" />
<glyph unicode="&#102;" horiz-adv-x="345" d="M95 424h-80v96h80q0 38 10 72q10 34 32.5 59.5q22.5 25.5 59.5 40.5q37 15 91 15q9 0 19 -0.5q10 -0.5 18 -1.5l0 -96h-23q-52 0 -74.5 -20.5q-22.5 -20.5 -22.5 -68.5l113 0v-96h-113v-424l-110 0z" />
<glyph unicode="&#103;" horiz-adv-x="589" d="M294 -172q-49 0 -88.5 12q-39.5 12 -68 34q-28.5 22 -44 54q-15.5 32 -15.5 72l110 0q0 -12 6 -25q6 -13 18.5 -23.5q12.5 -10.5 32.5 -17q20 -6.5 49 -6.5q57 0 81 26.5q24 26.5 24 71.5v78q-19 -23 -55.5 -43q-36.5 -20 -90.5 -20q-39 0 -73.5 11.5q-34.5 11.5 -60 35q-25.5 23.5 -40 59.5q-14.5 36 -14.5 85v109q0 49 15 85q15 36 40 59.5q25 23.5 58.5 35q33.5 11.5 70.5 11.5q56 0 94 -21.5q38 -21.5 61 -48.5l41 58h64v-491q0 -51 -15.5 -89q-15.5 -38 -43.5 -62.5q-28 -24.5 -67.5 -37q-39.5 -12.5 -88.5 -12.5zt0 0zM277 141q41 0 71 20.5q30 20.5 51 44.5l0 161q-21 24 -51 44.5q-30 20.5 -71 20.5q-44 0 -73 -25q-29 -25 -29 -72v-97q0 -47 29 -72t73 -25z" />
<glyph unicode="&#104;" horiz-adv-x="594" d="M80 705h110v-236q22 24 58.5 43.5q36.5 19.5 90.5 19.5q39 0 72 -13q33 -13 57 -38q24 -25 37.5 -62q13.5 -37 13.5 -84v-335h-110v325q0 56 -28 81.5q-28 25.5 -67 25.5q-22 0 -41 -7q-19 -7 -35 -17q-16 -10 -28 -22q-12 -12 -20 -21l0 -365l-110 0z" />
<glyph unicode="&#105;" horiz-adv-x="270" d="M80 520h110v-520h-110zM80 705h110v-110l-110 0z" />
<glyph unicode="&#106;" horiz-adv-x="271" d="M191 520v-505q0 -33 -8.5 -66.5q-8.5 -33.5 -28 -60.5q-19.5 -27 -51.5 -43.5q-32 -16.5 -80 -16.5q-10 0 -19.5 0.5q-9.5 0.5 -16.5 1.5l0 96h23q32 0 51.5 19q19.5 19 19.5 70v505zM81 705h110v-110l-110 0z" />
<glyph unicode="&#107;" horiz-adv-x="542" d="M80 705h110v-391h69l137 206h91v-52l-130 -196l145 -220v-52h-99l-145 218h-68v-218l-110 0z" />
<glyph unicode="&#108;" horiz-adv-x="270" d="M80 705h110v-705l-110 0z" />
<glyph unicode="&#109;" horiz-adv-x="881" d="M80 520h64l41 -58q23 27 58.5 48.5q35.5 21.5 89.5 21.5q100 0 141 -81q24 30 66.5 55.5q42.5 25.5 99.5 25.5q79 0 122.5 -48q43.5 -48 43.5 -137v-347h-110v335q0 51 -24 74q-24 23 -59 23q-35 0 -63.5 -19q-28.5 -19 -51.5 -48l0 -365h-110v335q0 51 -24 74q-24 23 -59 23q-23 0 -41 -7q-18 -7 -32 -17q-14 -10 -24.5 -22q-10.5 -12 -17.5 -21l0 -365l-110 0z" />
<glyph unicode="&#110;" horiz-adv-x="594" d="M80 520h64l41 -58q23 27 60.5 48.5q37.5 21.5 93.5 21.5q40 0 73 -13q33 -13 57 -38q24 -25 37 -62q13 -37 13 -84v-335h-110v325q0 56 -28 81.5q-28 25.5 -67 25.5q-22 0 -41 -7q-19 -7 -35 -17q-16 -10 -28 -22q-12 -12 -20 -21l0 -365l-110 0z" />
<glyph unicode="&#111;" horiz-adv-x="558" d="M279 88q57 0 84.5 28.5q27.5 28.5 27.5 69.5v148q0 41 -27.5 69.5q-27.5 28.5 -84.5 28.5q-57 0 -84.5 -28.5q-27.5 -28.5 -27.5 -69.5v-148q0 -41 27.5 -69.5q27.5 -28.5 84.5 -28.5zt0 0zM279 -12q-56 0 -97.5 15q-41.5 15 -69 41q-27.5 26 -41.5 61q-14 35 -14 76v158q0 41 14 76q14 35 41.5 61q27.5 26 69 41q41.5 15 97.5 15q55 0 97 -15q42 -15 69.5 -41q27.5 -26 41.5 -61q14 -35 14 -76v-158q0 -41 -14 -76q-14 -35 -41.5 -61q-27.5 -26 -69.5 -41t-97 -15z" />
<glyph unicode="&#112;" horiz-adv-x="589" d="M80 520h64l41 -58q23 27 61 48.5q38 21.5 94 21.5q37 0 70.5 -11.5q33.5 -11.5 58.5 -35q25 -23.5 40 -59.5q15 -36 15 -85v-162q0 -49 -15 -85q-15 -36 -40.5 -59.5q-25.5 -23.5 -59.5 -35q-34 -11.5 -73 -11.5q-54 0 -90.5 20q-36.5 20 -55.5 43l0 -211h-110zM316 88q40 0 69 26q29 26 29 73v146q0 47 -29 73q-29 26 -68 26q-42 0 -73 -21.5q-31 -21.5 -54 -45.5l0 -210q23 -24 53.5 -45.5t72.5 -21.5z" />
<glyph unicode="&#113;" horiz-adv-x="589" d="M399 51q-19 -23 -55.5 -43q-36.5 -20 -90.5 -20q-39 0 -73.5 11.5q-34.5 11.5 -60 35q-25.5 23.5 -40 59.5q-14.5 36 -14.5 85v162q0 49 15 85q15 36 40 59.5q25 23.5 58.5 35q33.5 11.5 70.5 11.5q56 0 94 -21.5q38 -21.5 61 -48.5l41 58h64v-680h-110zM273 88q42 0 72.5 21.5q30.5 21.5 53.5 45.5l0 210q-23 24 -54 45.5q-31 21.5 -73 21.5q-39 0 -68 -26q-29 -26 -29 -73v-146q0 -47 29 -73t69 -26z" />
<glyph unicode="&#114;" horiz-adv-x="370" d="M80 520h55l42 -58q22 25 58 47.5q36 22.5 85 22.5h20v-105h-15q-45 0 -77 -13q-32 -13 -58 -43l0 -371l-110 0z" />
<glyph unicode="&#115;" horiz-adv-x="553" d="M278 -12q-52 0 -94 12.5q-42 12.5 -72 37q-30 24.5 -46 60q-16 35.5 -16 81.5l110 0q0 -45 35 -68q35 -23 92 -23q45 0 70.5 15.5q25.5 15.5 25.5 41.5q0 19 -12.5 32.5q-12.5 13.5 -44.5 21.5l-135 35q-24 6 -46.5 16q-22.5 10 -40 26q-17.5 16 -28 39.5q-10.5 23.5 -10.5 56.5q0 72 54 116q54 44 152 44q48 0 87 -12q39 -12 66.5 -35.5q27.5 -23.5 43 -58q15.5 -34.5 15.5 -80.5l-110 0q0 44 -30.5 65q-30.5 21 -78.5 21q-48 0 -68.5 -16.5q-20.5 -16.5 -20.5 -38.5q0 -35 57 -50l134 -33q27 -7 50.5 -17.5q23.5 -10.5 40 -27q16.5 -16.5 26 -40q9.5 -23.5 9.5 -55.5q0 -37 -15.5 -67.5q-15.5 -30.5 -43.5 -52.5q-28 -22 -67.5 -34t-88.5 -12z" />
<glyph unicode="&#116;" horiz-adv-x="379" d="M281 0q-54 0 -89.5 16q-35.5 16 -55.5 42q-20 26 -28 59.5q-8 33.5 -8 68.5v238h-80v96h80v108h110v-108h124v-96h-124v-239q0 -51 19.5 -70q19.5 -19 51.5 -19h53v-96l-53 0z" />
<glyph unicode="&#117;" horiz-adv-x="591" d="M253 -12q-79 0 -128.5 51q-49.5 51 -49.5 146v335h110v-325q0 -56 27.5 -81.5q27.5 -25.5 66.5 -25.5q21 0 40 7q19 7 34.5 17q15.5 10 27.5 22q12 12 20 21l0 365h110v-520h-64l-42 58q-23 -27 -60 -48.5t-92 -21.5z" />
<glyph unicode="&#118;" horiz-adv-x="510" d="M20 468v52h102l137 -370l131 370h100v-52l-185 -468l-100 0z" />
<glyph unicode="&#119;" horiz-adv-x="718" d="M45 468v52h100l83 -370l94 276h75l94 -276l83 370h99v-52l-114 -468h-104l-95 254l-96 -254l-106 0z" />
<glyph unicode="&#120;" horiz-adv-x="525" d="M40 52l153 208l-151 208v52h99l121 -176l122 176h93v-52l-148 -204l156 -212v-52h-98l-127 185l-126 -185l-94 0z" />
<glyph unicode="&#121;" horiz-adv-x="511" d="M153 -120l52 120l-185 468v52h102l137 -370l131 370h101v-52l-248 -628l-90 0z" />
<glyph unicode="&#122;" horiz-adv-x="528" d="M50 96l274 328h-265v96h397v-96l-276 -328h288v-96l-418 0z" />
<glyph unicode="&#123;" horiz-adv-x="338" d="M298 -160q-86 0 -135.5 49.5q-49.5 49.5 -49.5 142.5v148q0 42 -14 60.5q-14 18.5 -43 18.5h-26v100h26q31 0 44 20.5q13 20.5 13 58.5v136q0 93 49.5 142.5q49.5 49.5 135.5 49.5l0 -100q-37 0 -56 -25.5q-19 -25.5 -19 -60.5v-171q0 -22 -5.5 -38.5q-5.5 -16.5 -14.5 -28.5q-9 -12 -20 -20q-11 -8 -21 -13q10 -5 21 -13q11 -8 20 -20q9 -12 14.5 -28.5q5.5 -16.5 5.5 -38.5v-183q0 -35 19 -60.5q19 -25.5 56 -25.5l0 -100z" />
<glyph unicode="&#124;" horiz-adv-x="290" d="M90 766h110v-866l-110 0z" />
<glyph unicode="&#125;" horiz-adv-x="338" d="M40 -160q86 0 135.5 49.5q49.5 49.5 49.5 142.5v148q0 42 14 60.5q14 18.5 43 18.5h26v100h-26q-31 0 -44 20.5q-13 20.5 -13 58.5v136q0 93 -49.5 142.5q-49.5 49.5 -135.5 49.5l0 -100q37 0 56 -25.5q19 -25.5 19 -60.5v-171q0 -22 5.5 -38.5q5.5 -16.5 14.5 -28.5q9 -12 20 -20q11 -8 21 -13q-10 -5 -21 -13q-11 -8 -20 -20q-9 -12 -14.5 -28.5q-5.5 -16.5 -5.5 -38.5v-183q0 -35 -19 -60.5q-19 -25.5 -56 -25.5l0 -100z" />
<glyph unicode="&#126;" horiz-adv-x="491" d="M40 282q26 50 55.5 80q29.5 30 67.5 30q24 0 43.5 -7q19.5 -7 35.5 -18l18 -12q14 -10 27 -17q13 -7 26 -7q16 0 29.5 12q13.5 12 33.5 44l75 -45q-26 -49 -55.5 -79.5q-29.5 -30.5 -67.5 -30.5q-37 0 -66 18l-22 13q-18 11 -33 20.5q-15 9.5 -29 9.5q-16 0 -29.5 -12q-13.5 -12 -33.5 -44z" />
<glyph unicode="&#160;" horiz-adv-x="240" />
<glyph unicode="&#161;" horiz-adv-x="296" d="M93 306h110v-466h-110zM90 520h116v-123l-116 0z" />
<glyph unicode="&#162;" horiz-adv-x="545" d="M233 77q-81 11 -128.5 61q-47.5 50 -47.5 129v158q0 78 47.5 128.5q47.5 50.5 128.5 61.5l0 85h80v-84q82 -9 130.5 -58.5q48.5 -49.5 48.5 -130.5v-6h-110v6q0 33 -18.5 56q-18.5 23 -53.5 31l0 -337q35 8 53.5 31q18.5 23 18.5 57v9h110v-7q0 -81 -49.5 -131q-49.5 -50 -129.5 -60l0 -76h-80zM236 513q-35 -9 -52 -31.5q-17 -22.5 -17 -54.5v-162q0 -32 17 -55q17 -23 52 -31z" />
<glyph unicode="&#163;" horiz-adv-x="579" d="M40 100h70v203h-70v100h70v119q0 44 15 80q15 36 43.5 61q28.5 25 68.5 38.5q40 13.5 90 13.5q97 0 154.5 -51.5q57.5 -51.5 57.5 -149.5v-36h-110v36q0 48 -26 74.5q-26 26.5 -76 26.5q-55 0 -81 -25q-26 -25 -26 -66v-121h144v-100h-144v-203h319v-100l-499 0z" />
<glyph unicode="&#165;" horiz-adv-x="580" d="M235 106h-172v96h172v82h-172v96h114l-167 280v40h101l180 -315l180 315h99v-40l-167 -280h114v-96h-172v-82h172v-96h-172v-106l-110 0z" />
<glyph unicode="&#166;" horiz-adv-x="290" d="M90 247h110v-347h-110zM90 766h110v-327l-110 0z" />
<glyph unicode="&#167;" horiz-adv-x="585" d="M156 28q0 -31 13.5 -51q13.5 -20 34.5 -32q21 -12 46 -16.5q25 -4.5 48 -4.5q57 0 84 20q27 20 27 52q0 16 -7.5 28q-7.5 12 -22 21q-14.5 9 -34.5 16.5q-20 7.5 -44 16.5l-46 16q-45 16 -80 33q-35 17 -59 38.5q-24 21.5 -36.5 48.5q-12.5 27 -12.5 62q0 46 20 82q20 36 47 65q-33 26 -47.5 52q-14.5 26 -14.5 71q0 35 14.5 64.5q14.5 29.5 42.5 51q28 21.5 68 33.5q40 12 90 12q49 0 92 -11q43 -11 74 -34q31 -23 49 -60.5q18 -37.5 18 -89.5l-105 0q0 28 -12.5 47q-12.5 19 -31.5 30.5q-19 11.5 -42.5 16.5q-23.5 5 -45.5 5q-57 0 -81.5 -20.5q-24.5 -20.5 -24.5 -48.5q0 -33 31.5 -49.5q31.5 -16.5 81.5 -33.5l47 -16q45 -15 80 -32.5q35 -17.5 59 -39q24 -21.5 36.5 -48.5q12.5 -27 12.5 -62q0 -46 -20 -82q-20 -36 -47 -65q33 -26 47.5 -51.5q14.5 -25.5 14.5 -70.5q0 -34 -15 -63.5q-15 -29.5 -44 -52q-29 -22.5 -72 -35.5q-43 -13 -98 -13q-49 0 -92.5 12q-43.5 12 -76.5 37q-33 25 -52.5 62.5q-19.5 37.5 -19.5 88.5zM380 155q39 48 39 92q0 19 -9.5 34.5q-9.5 15.5 -25.5 28q-16 12.5 -36.5 22.5q-20.5 10 -42.5 18l-90 33q-39 -48 -39 -92q0 -19 9.5 -35q9.5 -16 25.5 -28.5q16 -12.5 36.5 -22.5q20.5 -10 42.5 -18z" />
<glyph unicode="&#168;" horiz-adv-x="427" d="M60 705h110v-110h-110zM257 705h110v-110l-110 0z" />
<glyph unicode="&#169;" horiz-adv-x="860" d="M431 140q-85 0 -130 42.5q-45 42.5 -45 119.5v97q0 77 45 119.5q45 42.5 130 42.5q33 0 63 -9q30 -9 52.5 -27.5q22.5 -18.5 36 -48q13.5 -29.5 13.5 -70.5v-3h-87v3q0 21 -7.5 36q-7.5 15 -19 24q-11.5 9 -25.5 13.5q-14 4.5 -27 4.5q-45 0 -66 -21q-21 -21 -21 -58v-108q0 -37 21 -58.5q21 -21.5 66 -21.5q13 0 27 4.5q14 4.5 25.5 14q11.5 9.5 19 24.5q7.5 15 7.5 36v2h87v-2q0 -41 -13.5 -70.5q-13.5 -29.5 -36 -48.5q-22.5 -19 -52.5 -28q-30 -9 -63 -9zt0 0zM430 -15q-76 0 -142 28q-66 28 -114.5 77q-48.5 49 -76 116q-27.5 67 -27.5 144q0 77 27.5 144q27.5 67 76 116q48.5 49 114.5 77q66 28 142 28q76 0 142 -28q66 -28 114.5 -77q48.5 -49 76 -116q27.5 -67 27.5 -144q0 -77 -27.5 -144q-27.5 -67 -76 -116q-48.5 -49 -114.5 -77q-66 -28 -142 -28zt0 0zM430 60q59 0 110.5 22q51.5 22 89 61q37.5 39 59 92q21.5 53 21.5 115q0 61 -21.5 114q-21.5 53 -59 92q-37.5 39 -89 61.5q-51.5 22.5 -110.5 22.5q-59 0 -110.5 -22.5q-51.5 -22.5 -89 -61.5q-37.5 -39 -59 -92q-21.5 -53 -21.5 -114q0 -62 21.5 -115q21.5 -53 59 -92q37.5 -39 89 -61t110.5 -22z" />
<glyph unicode="&#170;" horiz-adv-x="438" d="M178 353q-26 0 -49 6q-23 6 -40.5 18.5q-17.5 12.5 -28 32q-10.5 19.5 -10.5 45.5q0 55 38.5 80.5q38.5 25.5 117.5 25.5h59v22q0 40 -47 40q-24 0 -35.5 -12q-11.5 -12 -11.5 -32l-104 0q0 55 36 90.5q36 35.5 114 35.5q77 0 114 -32.5q37 -32.5 37 -84.5v-230h-60l-24 32q-17 -16 -43.5 -26.5q-26.5 -10.5 -62.5 -10.5zt0 0zM196 432q20 0 38.5 8.5q18.5 8.5 30.5 22.5l0 35h-58q-31 0 -42 -9.5q-11 -9.5 -11 -23.5q0 -17 11.5 -25t30.5 -8z" />
<glyph unicode="&#171;" horiz-adv-x="545" d="M40 275l140 210h95v-32l-119 -178l119 -179v-32h-95zM250 275l140 210h95v-32l-119 -178l119 -179v-32l-95 0z" />
<glyph unicode="&#172;" horiz-adv-x="560" d="M401 375h-341v92h440v-270l-99 0z" />
<glyph unicode="&#173;" horiz-adv-x="442" d="M60 363h322v-100l-322 0z" />
<glyph unicode="&#174;" horiz-adv-x="414" d="M140 632h76q30 0 47 -14q17 -14 17 -40q0 -23 -11.5 -36q-11.5 -13 -29.5 -20l41 -53v-13h-35l-44 60h-24v-60h-37zM216 549q11 0 19 6q8 6 8 19q0 13 -8 18q-8 5 -19 5h-39v-48zM207 371q-35 0 -65.5 13q-30.5 13 -53 36q-22.5 23 -35.5 54.5q-13 31.5 -13 68.5q0 37 13 68.5q13 31.5 35.5 54.5q22.5 23 53 36q30.5 13 65.5 13q35 0 65.5 -13q30.5 -13 53 -36q22.5 -23 35.5 -54.5q13 -31.5 13 -68.5q0 -37 -13 -68.5q-13 -31.5 -35.5 -54.5q-22.5 -23 -53 -36q-30.5 -13 -65.5 -13zt0 0zM207 409q27 0 50 10q23 10 40 28q17 18 27 42.5q10 24.5 10 53.5q0 28 -10 52.5q-10 24.5 -27 42.5q-17 18 -40 28.5q-23 10.5 -50 10.5q-27 0 -50 -10.5q-23 -10.5 -40 -28.5q-17 -18 -27 -42.5q-10 -24.5 -10 -52.5q0 -29 10 -53.5q10 -24.5 27 -42.5q17 -18 40 -28t50 -10z" />
<glyph unicode="&#175;" horiz-adv-x="427" d="M60 695h307v-90l-307 0z" />
<glyph unicode="&#176;" horiz-adv-x="390" d="M195 434q29 0 43.5 17q14.5 17 14.5 41v86q0 24 -14.5 41q-14.5 17 -43.5 17q-29 0 -43.5 -17q-14.5 -17 -14.5 -41v-86q0 -24 14.5 -41q14.5 -17 43.5 -17zt0 0zM195 355q-72 0 -113.5 38.5q-41.5 38.5 -41.5 113.5v56q0 75 41.5 113.5q41.5 38.5 113.5 38.5q72 0 113.5 -38.5q41.5 -38.5 41.5 -113.5v-56q0 -75 -41.5 -113.5t-113.5 -38.5z" />
<glyph unicode="&#177;" horiz-adv-x="560" d="M230 333h-170v92h170v161h100v-161h170v-92h-170v-161h-100zM60 92h440v-92l-440 0z" />
<glyph unicode="&#178;" horiz-adv-x="317" d="M35 440l99 83q26 21 35.5 32q9.5 11 9.5 25q0 29 -29 29q-14 0 -22.5 -8.5q-8.5 -8.5 -8.5 -24.5l-89 0q0 63 36 96q36 33 90 33q55 0 87 -31.5q32 -31.5 32 -79.5q0 -22 -4.5 -39q-4.5 -17 -13.5 -31q-9 -14 -21 -26q-12 -12 -27 -24l-42 -34h110v-82l-242 0z" />
<glyph unicode="&#179;" horiz-adv-x="329" d="M165 353q-61 0 -98 35q-37 35 -37 90l80 0q0 -20 13.5 -31.5q13.5 -11.5 37.5 -11.5q24 0 33 9.5q9 9.5 9 22.5q0 16 -11.5 23q-11.5 7 -30.5 7h-38v63h38q17 0 26 10q9 10 9 23q0 11 -8.5 21q-8.5 10 -28.5 10q-43 0 -43 -47l-81 0q0 62 34.5 95q34.5 33 92.5 33q59 0 90 -28.5q31 -28.5 31 -69.5q0 -24 -10.5 -41.5q-10.5 -17.5 -27.5 -26.5q20 -8 34 -28.5q14 -20.5 14 -46.5q0 -48 -33.5 -79.5t-94.5 -31.5z" />
<glyph unicode="&#180;" horiz-adv-x="299" d="M140 730h99v-38l-90 -102l-89 0z" />
<glyph unicode="&#181;" horiz-adv-x="596" d="M80 520h110v-312q0 -23 8 -44q8 -21 22.5 -37.5q14.5 -16.5 33.5 -26.5q19 -10 41 -10q21 0 38 6.5q17 6.5 30.5 16.5q13.5 10 24 21.5q10.5 11.5 18.5 20.5l0 365h110v-520h-64l-42 58q-11 -14 -23 -26.5q-12 -12.5 -27 -22q-15 -9.5 -34.5 -15.5q-19.5 -6 -45.5 -6q-31 0 -55 16q-24 16 -35 30l0 -194l-110 0z" />
<glyph unicode="&#182;" horiz-adv-x="620" d="M215 368q-81 0 -128 42q-47 42 -47 120v8q0 80 47 121q47 41 128 41h315v-787h-105v687h-105v-687l-105 0z" />
<glyph unicode="&#183;" horiz-adv-x="275" d="M70 382h135v-136l-135 0z" />
<glyph unicode="&#184;" horiz-adv-x="299" d="M66 -122l87 122h89l-77 -160l-99 0z" />
<glyph unicode="&#185;" horiz-adv-x="269" d="M96 564h-66v53l128 83h41v-342l-103 0z" />
<glyph unicode="&#186;" horiz-adv-x="410" d="M205 441q29 0 45.5 18.5q16.5 18.5 16.5 44.5v50q0 26 -16.5 44.5q-16.5 18.5 -45.5 18.5q-29 0 -45.5 -18.5q-16.5 -18.5 -16.5 -44.5v-50q0 -26 16.5 -44.5q16.5 -18.5 45.5 -18.5zt0 0zM205 353q-77 0 -121 41q-44 41 -44 121v28q0 80 44 121q44 41 121 41q78 0 121.5 -41q43.5 -41 43.5 -121v-28q0 -80 -43.5 -121t-121.5 -41z" />
<glyph unicode="&#187;" horiz-adv-x="545" d="M295 275l-140 210h-95v-32l119 -178l-119 -179v-32h95zM505 275l-140 210h-95v-32l119 -178l-119 -179v-32l95 0z" />
<glyph unicode="&#188;" horiz-adv-x="743" d="M96 564h-66v53l128 83h41v-342h-103zM96 40l405 660h85v-40l-405 -660h-85zM605 342v-49l-95 -159h76v65h103v-65h44v-76h-44v-58h-103v58h-182v68l131 216z" />
<glyph unicode="&#189;" horiz-adv-x="746" d="M96 564h-66v53l128 83h41v-342h-103zM96 40l405 660h85v-40l-405 -660h-85zM464 82l99 83q26 21 35.5 32q9.5 11 9.5 25q0 29 -29 29q-14 0 -22.5 -8.5q-8.5 -8.5 -8.5 -24.5l-89 0q0 63 36 96q36 33 90 33q55 0 87 -31.5q32 -31.5 32 -79.5q0 -22 -4.5 -39q-4.5 -17 -13.5 -31q-9 -14 -21 -26q-12 -12 -27 -24l-42 -34h110v-82l-242 0z" />
<glyph unicode="&#190;" horiz-adv-x="788" d="M650 342v-49l-95 -159h76v65h103v-65h44v-76h-44v-58h-103v58h-182v68l131 216zM141 40l405 660h85v-40l-405 -660h-85zM165 353q-61 0 -98 35q-37 35 -37 90l80 0q0 -20 13.5 -31.5q13.5 -11.5 37.5 -11.5q24 0 33 9.5q9 9.5 9 22.5q0 16 -11.5 23q-11.5 7 -30.5 7h-38v63h38q17 0 26 10q9 10 9 23q0 11 -8.5 21q-8.5 10 -28.5 10q-43 0 -43 -47l-81 0q0 62 34.5 95q34.5 33 92.5 33q59 0 90 -28.5q31 -28.5 31 -69.5q0 -24 -10.5 -41.5q-10.5 -17.5 -27.5 -26.5q20 -8 34 -28.5q14 -20.5 14 -46.5q0 -48 -33.5 -79.5t-94.5 -31.5z" />
<glyph unicode="&#191;" horiz-adv-x="520" d="M248 -172q-55 0 -96 15.5q-41 15.5 -68 41.5q-27 26 -40.5 60.5q-13.5 34.5 -13.5 72.5q0 40 13.5 70.5q13.5 30.5 33.5 54q20 23.5 44.5 41q24.5 17.5 46.5 31.5l38 24v67h110v-106l-84 -51q-23 -14 -40 -26.5q-17 -12.5 -28.5 -27q-11.5 -14.5 -17.5 -32.5q-6 -18 -6 -43q0 -36 26 -64q26 -28 82 -28q60 0 93.5 32.5q33.5 32.5 33.5 94.5l105 0q0 -57 -18 -99.5q-18 -42.5 -49 -71q-31 -28.5 -73.5 -42.5q-42.5 -14 -91.5 -14zt0 0zM203 520h116v-123l-116 0z" />
<glyph unicode="&#192;" horiz-adv-x="658" d="M20 40l250 660h118l250 -660v-40h-118l-62 173h-264l-63 -173h-111zM422 273l-95 267l-97 -267zM183 872v41h106l86 -151l-95 0z" />
<glyph unicode="&#193;" horiz-adv-x="658" d="M20 40l250 660h118l250 -660v-40h-118l-62 173h-264l-63 -173h-111zM422 273l-95 267l-97 -267zM375 913h106v-41l-96 -110l-96 0z" />
<glyph unicode="&#194;" horiz-adv-x="658" d="M20 40l250 660h118l250 -660v-40h-118l-62 173h-264l-63 -173h-111zM422 273l-95 267l-97 -267zM175 800l106 113h95l106 -113v-38h-90l-64 72l-65 -72l-88 0z" />
<glyph unicode="&#195;" horiz-adv-x="658" d="M20 40l250 660h118l250 -660v-40h-118l-62 173h-264l-63 -173h-111zM422 273l-95 267l-97 -267zM143 796q23 45 50.5 73q27.5 28 61.5 28q22 0 40.5 -7q18.5 -7 33.5 -17l16 -11q13 -9 25.5 -15q12.5 -6 25.5 -6q12 0 23 10.5q11 10.5 30 40.5l67 -41q-23 -46 -50.5 -73.5q-27.5 -27.5 -60.5 -27.5q-20 0 -37 5.5q-17 5.5 -29 13.5l-18 11q-16 9 -30 17q-14 8 -28 8q-12 0 -23 -10q-11 -10 -30 -40z" />
<glyph unicode="&#196;" horiz-adv-x="658" d="M20 40l250 660h118l250 -660v-40h-118l-62 173h-264l-63 -173h-111zM422 273l-95 267l-97 -267zM163 886h118v-118h-118zM375 886h117v-118l-117 0z" />
<glyph unicode="&#197;" horiz-adv-x="658" d="M20 40l250 660h118l250 -660v-40h-118l-62 173h-264l-63 -173h-111zM422 273l-95 267l-97 -267zM327 803q18 0 32 13q14 13 14 31q0 18 -14 31q-14 13 -32 13q-18 0 -32 -13q-14 -13 -14 -31q0 -18 14 -31q14 -13 32 -13zt0 0zM327 738q-23 0 -44 9q-21 9 -37 23.5q-16 14.5 -25.5 34q-9.5 19.5 -9.5 42.5q0 22 9.5 42q9.5 20 25.5 34.5q16 14.5 37 23q21 8.5 44 8.5q24 0 44.5 -8.5q20.5 -8.5 37 -23q16.5 -14.5 25.5 -34.5q9 -20 9 -42q0 -23 -9 -42.5q-9 -19.5 -25.5 -34q-16.5 -14.5 -37 -23.5t-44.5 -9z" />
<glyph unicode="&#198;" horiz-adv-x="992" d="M10 40l416 660h515v-105h-329v-194h282v-100h-282v-196h330v-105h-450v173h-265l-109 -173h-108zM492 273v320l-202 -320z" />
<glyph unicode="&#199;" horiz-adv-x="660" d="M205 -122l79 111q-104 14 -159 78q-55 64 -55 170v226q0 120 70.5 186q70.5 66 201.5 66q51 0 98 -14q47 -14 82.5 -43.5q35.5 -29.5 56.5 -75.5q21 -46 21 -109v-10h-120v10q0 35 -13 60q-13 25 -33.5 41q-20.5 16 -45 23.5q-24.5 7.5 -47.5 7.5q-78 0 -114.5 -35.5q-36.5 -35.5 -36.5 -98.5v-242q0 -63 36.5 -98.5q36.5 -35.5 114.5 -35.5q23 0 47.5 7.5q24.5 7.5 45 23.5q20.5 16 33.5 41q13 25 13 60v10h120v-10q0 -59 -18 -102q-18 -43 -49 -72.5q-31 -29.5 -72 -46q-41 -16.5 -87 -20.5l-70 -146l-99 0z" />
<glyph unicode="&#200;" horiz-adv-x="590" d="M90 700h449v-105h-329v-194h282v-100h-282v-196h330v-105h-450zM193 872v41h106l86 -151l-95 0z" />
<glyph unicode="&#201;" horiz-adv-x="590" d="M90 700h449v-105h-329v-194h282v-100h-282v-196h330v-105h-450zM323 913h106v-41l-96 -110l-96 0z" />
<glyph unicode="&#202;" horiz-adv-x="590" d="M90 700h449v-105h-329v-194h282v-100h-282v-196h330v-105h-450zM163 800l106 113h95l106 -113v-38h-90l-64 72l-65 -72l-88 0z" />
<glyph unicode="&#203;" horiz-adv-x="590" d="M90 700h449v-105h-329v-194h282v-100h-282v-196h330v-105h-450zM150 886h118v-118h-118zM361 886h118v-118l-118 0z" />
<glyph unicode="&#204;" horiz-adv-x="300" d="M90 700h120v-700h-120zM12 872v41h106l86 -151l-95 0z" />
<glyph unicode="&#205;" horiz-adv-x="300" d="M90 700h120v-700h-120zM191 913h106v-41l-96 -110l-96 0z" />
<glyph unicode="&#206;" horiz-adv-x="300" d="M90 700h120v-700h-120zM-3 800l106 113h95l106 -113v-38h-90l-64 72l-65 -72l-88 0z" />
<glyph unicode="&#207;" horiz-adv-x="300" d="M90 700h120v-700h-120zM-14 886h118v-118h-118zM198 886h117v-118l-117 0z" />
<glyph unicode="&#208;" horiz-adv-x="709" d="M364 105q38 0 67 10.5q29 10.5 48.5 28.5q19.5 18 29.5 42.5q10 24.5 10 52.5v222q0 28 -10 52.5q-10 24.5 -29.5 42.5q-19.5 18 -48.5 28.5q-29 10.5 -67 10.5h-130v-194h141v-100h-141v-196zM114 301h-94v100h94v299h250q63 0 114 -16q51 -16 86.5 -47q35.5 -31 55 -76q19.5 -45 19.5 -103v-216q0 -58 -19.5 -103q-19.5 -45 -55 -76q-35.5 -31 -86.5 -47q-51 -16 -114 -16l-250 0z" />
<glyph unicode="&#209;" horiz-adv-x="710" d="M90 700h110l300 -477v477h120v-700h-110l-300 477v-477h-120zM171 796q23 45 50.5 73q27.5 28 61.5 28q22 0 40.5 -7q18.5 -7 33.5 -17l16 -11q13 -9 25.5 -15q12.5 -6 25.5 -6q12 0 23 10.5q11 10.5 30 40.5l67 -41q-23 -46 -50.5 -73.5q-27.5 -27.5 -60.5 -27.5q-20 0 -37 5.5q-17 5.5 -29 13.5l-18 11q-16 9 -30 17q-14 8 -28 8q-12 0 -23 -10q-11 -10 -30 -40z" />
<glyph unicode="&#210;" horiz-adv-x="690" d="M345 95q39 0 68 10.5q29 10.5 48.5 29q19.5 18.5 29 43.5q9.5 25 9.5 53v238q0 28 -9.5 53q-9.5 25 -29 43.5q-19.5 18.5 -48.5 29q-29 10.5 -68 10.5q-39 0 -68 -10.5q-29 -10.5 -48.5 -29q-19.5 -18.5 -29 -43.5q-9.5 -25 -9.5 -53v-238q0 -28 9.5 -53q9.5 -25 29 -43.5q19.5 -18.5 48.5 -29q29 -10.5 68 -10.5zt0 0zM345 -15q-63 0 -114 17q-51 17 -86.5 49.5q-35.5 32.5 -55 79q-19.5 46.5 -19.5 106.5v226q0 60 19.5 106.5q19.5 46.5 55 79q35.5 32.5 86.5 49.5q51 17 114 17q63 0 114 -17q51 -17 86.5 -49.5q35.5 -32.5 55 -79q19.5 -46.5 19.5 -106.5v-226q0 -60 -19.5 -106.5q-19.5 -46.5 -55 -79q-35.5 -32.5 -86.5 -49.5q-51 -17 -114 -17zt0 0zM211 872v41h106l86 -151l-95 0z" />
<glyph unicode="&#211;" horiz-adv-x="690" d="M345 95q39 0 68 10.5q29 10.5 48.5 29q19.5 18.5 29 43.5q9.5 25 9.5 53v238q0 28 -9.5 53q-9.5 25 -29 43.5q-19.5 18.5 -48.5 29q-29 10.5 -68 10.5q-39 0 -68 -10.5q-29 -10.5 -48.5 -29q-19.5 -18.5 -29 -43.5q-9.5 -25 -9.5 -53v-238q0 -28 9.5 -53q9.5 -25 29 -43.5q19.5 -18.5 48.5 -29q29 -10.5 68 -10.5zt0 0zM345 -15q-63 0 -114 17q-51 17 -86.5 49.5q-35.5 32.5 -55 79q-19.5 46.5 -19.5 106.5v226q0 60 19.5 106.5q19.5 46.5 55 79q35.5 32.5 86.5 49.5q51 17 114 17q63 0 114 -17q51 -17 86.5 -49.5q35.5 -32.5 55 -79q19.5 -46.5 19.5 -106.5v-226q0 -60 -19.5 -106.5q-19.5 -46.5 -55 -79q-35.5 -32.5 -86.5 -49.5q-51 -17 -114 -17zt0 0zM383 913h106v-41l-96 -110l-96 0z" />
<glyph unicode="&#212;" horiz-adv-x="690" d="M345 95q39 0 68 10.5q29 10.5 48.5 29q19.5 18.5 29 43.5q9.5 25 9.5 53v238q0 28 -9.5 53q-9.5 25 -29 43.5q-19.5 18.5 -48.5 29q-29 10.5 -68 10.5q-39 0 -68 -10.5q-29 -10.5 -48.5 -29q-19.5 -18.5 -29 -43.5q-9.5 -25 -9.5 -53v-238q0 -28 9.5 -53q9.5 -25 29 -43.5q19.5 -18.5 48.5 -29q29 -10.5 68 -10.5zt0 0zM345 -15q-63 0 -114 17q-51 17 -86.5 49.5q-35.5 32.5 -55 79q-19.5 46.5 -19.5 106.5v226q0 60 19.5 106.5q19.5 46.5 55 79q35.5 32.5 86.5 49.5q51 17 114 17q63 0 114 -17q51 -17 86.5 -49.5q35.5 -32.5 55 -79q19.5 -46.5 19.5 -106.5v-226q0 -60 -19.5 -106.5q-19.5 -46.5 -55 -79q-35.5 -32.5 -86.5 -49.5q-51 -17 -114 -17zt0 0zM193 800l106 113h95l106 -113v-38h-90l-64 72l-65 -72l-88 0z" />
<glyph unicode="&#213;" horiz-adv-x="690" d="M345 95q39 0 68 10.5q29 10.5 48.5 29q19.5 18.5 29 43.5q9.5 25 9.5 53v238q0 28 -9.5 53q-9.5 25 -29 43.5q-19.5 18.5 -48.5 29q-29 10.5 -68 10.5q-39 0 -68 -10.5q-29 -10.5 -48.5 -29q-19.5 -18.5 -29 -43.5q-9.5 -25 -9.5 -53v-238q0 -28 9.5 -53q9.5 -25 29 -43.5q19.5 -18.5 48.5 -29q29 -10.5 68 -10.5zt0 0zM345 -15q-63 0 -114 17q-51 17 -86.5 49.5q-35.5 32.5 -55 79q-19.5 46.5 -19.5 106.5v226q0 60 19.5 106.5q19.5 46.5 55 79q35.5 32.5 86.5 49.5q51 17 114 17q63 0 114 -17q51 -17 86.5 -49.5q35.5 -32.5 55 -79q19.5 -46.5 19.5 -106.5v-226q0 -60 -19.5 -106.5q-19.5 -46.5 -55 -79q-35.5 -32.5 -86.5 -49.5q-51 -17 -114 -17zt0 0zM165 796q23 45 50.5 73q27.5 28 61.5 28q22 0 40.5 -7q18.5 -7 33.5 -17l16 -11q13 -9 25.5 -15q12.5 -6 25.5 -6q12 0 23 10.5q11 10.5 30 40.5l67 -41q-23 -46 -50.5 -73.5q-27.5 -27.5 -60.5 -27.5q-20 0 -37 5.5q-17 5.5 -29 13.5l-18 11q-16 9 -30 17q-14 8 -28 8q-12 0 -23 -10q-11 -10 -30 -40z" />
<glyph unicode="&#214;" horiz-adv-x="690" d="M345 95q39 0 68 10.5q29 10.5 48.5 29q19.5 18.5 29 43.5q9.5 25 9.5 53v238q0 28 -9.5 53q-9.5 25 -29 43.5q-19.5 18.5 -48.5 29q-29 10.5 -68 10.5q-39 0 -68 -10.5q-29 -10.5 -48.5 -29q-19.5 -18.5 -29 -43.5q-9.5 -25 -9.5 -53v-238q0 -28 9.5 -53q9.5 -25 29 -43.5q19.5 -18.5 48.5 -29q29 -10.5 68 -10.5zt0 0zM345 -15q-63 0 -114 17q-51 17 -86.5 49.5q-35.5 32.5 -55 79q-19.5 46.5 -19.5 106.5v226q0 60 19.5 106.5q19.5 46.5 55 79q35.5 32.5 86.5 49.5q51 17 114 17q63 0 114 -17q51 -17 86.5 -49.5q35.5 -32.5 55 -79q19.5 -46.5 19.5 -106.5v-226q0 -60 -19.5 -106.5q-19.5 -46.5 -55 -79q-35.5 -32.5 -86.5 -49.5q-51 -17 -114 -17zt0 0zM181 886h118v-118h-118zM393 886h117v-118l-117 0z" />
<glyph unicode="&#215;" horiz-adv-x="559" d="M60 161l148 149l-148 149l71 71l148 -149l149 149l71 -71l-149 -149l149 -149l-71 -71l-149 149l-148 -149z" />
<glyph unicode="&#216;" horiz-adv-x="690" d="M158 -60l28 82q-56 31 -86 85.5q-30 54.5 -30 129.5v226q0 60 19.5 106.5q19.5 46.5 55 79q35.5 32.5 86.5 49.5q51 17 114 17q37 0 72 -6l30 91h88v-40l-28 -84q54 -32 83.5 -85.5q29.5 -53.5 29.5 -127.5v-226q0 -60 -19.5 -106.5q-19.5 -46.5 -55 -79q-35.5 -32.5 -86.5 -49.5q-51 -17 -114 -17q-37 0 -68 6l-31 -91h-88zM384 601q-9 2 -18.5 3q-9.5 1 -20.5 1q-39 0 -68 -10.5q-29 -10.5 -48.5 -29q-19.5 -18.5 -29 -43.5q-9.5 -25 -9.5 -53v-238q0 -59 38 -96zM345 95q39 0 68 10.5q29 10.5 48.5 29q19.5 18.5 29 43.5q9.5 25 9.5 53v238q0 55 -36 93l-154 -464q16 -3 35 -3z" />
<glyph unicode="&#217;" horiz-adv-x="690" d="M610 700v-472q0 -57 -18.5 -102.5q-18.5 -45.5 -53 -76.5q-34.5 -31 -83.5 -47.5q-49 -16.5 -110 -16.5q-61 0 -110 16.5q-49 16.5 -83.5 47.5q-34.5 31 -53 76.5q-18.5 45.5 -18.5 102.5v472h120v-478q0 -26 9 -49.5q9 -23.5 27 -40.5q18 -17 45.5 -27q27.5 -10 63.5 -10q36 0 63.5 10q27.5 10 45.5 27q18 17 27 40.5q9 23.5 9 49.5v478zM221 872v41h106l86 -151l-95 0z" />
<glyph unicode="&#218;" horiz-adv-x="690" d="M610 700v-472q0 -57 -18.5 -102.5q-18.5 -45.5 -53 -76.5q-34.5 -31 -83.5 -47.5q-49 -16.5 -110 -16.5q-61 0 -110 16.5q-49 16.5 -83.5 47.5q-34.5 31 -53 76.5q-18.5 45.5 -18.5 102.5v472h120v-478q0 -26 9 -49.5q9 -23.5 27 -40.5q18 -17 45.5 -27q27.5 -10 63.5 -10q36 0 63.5 10q27.5 10 45.5 27q18 17 27 40.5q9 23.5 9 49.5v478zM370 913h106v-41l-96 -110l-96 0z" />
<glyph unicode="&#219;" horiz-adv-x="690" d="M610 700v-472q0 -57 -18.5 -102.5q-18.5 -45.5 -53 -76.5q-34.5 -31 -83.5 -47.5q-49 -16.5 -110 -16.5q-61 0 -110 16.5q-49 16.5 -83.5 47.5q-34.5 31 -53 76.5q-18.5 45.5 -18.5 102.5v472h120v-478q0 -26 9 -49.5q9 -23.5 27 -40.5q18 -17 45.5 -27q27.5 -10 63.5 -10q36 0 63.5 10q27.5 10 45.5 27q18 17 27 40.5q9 23.5 9 49.5v478zM192 800l106 113h95l106 -113v-38h-90l-64 72l-65 -72l-88 0z" />
<glyph unicode="&#220;" horiz-adv-x="690" d="M610 700v-472q0 -57 -18.5 -102.5q-18.5 -45.5 -53 -76.5q-34.5 -31 -83.5 -47.5q-49 -16.5 -110 -16.5q-61 0 -110 16.5q-49 16.5 -83.5 47.5q-34.5 31 -53 76.5q-18.5 45.5 -18.5 102.5v472h120v-478q0 -26 9 -49.5q9 -23.5 27 -40.5q18 -17 45.5 -27q27.5 -10 63.5 -10q36 0 63.5 10q27.5 10 45.5 27q18 17 27 40.5q9 23.5 9 49.5v478zM181 886h118v-118h-118zM393 886h117v-118l-117 0z" />
<glyph unicode="&#221;" horiz-adv-x="614" d="M247 277l-237 383v40h118l180 -310l186 310h110v-40l-237 -378v-282h-120zM335 913h106v-41l-96 -110l-96 0z" />
<glyph unicode="&#222;" horiz-adv-x="635" d="M90 700h120v-132h183q94 0 145.5 -58q51.5 -58 51.5 -157q0 -99 -51.5 -157q-51.5 -58 -145.5 -58h-183v-138h-120zM372 243q39 0 67.5 27q28.5 27 28.5 83q0 56 -28.5 83q-28.5 27 -67.5 27h-162l0 -220z" />
<glyph unicode="&#223;" horiz-adv-x="599" d="M80 465q0 116 58.5 179q58.5 63 162.5 63q51 0 90.5 -14q39.5 -14 67 -38.5q27.5 -24.5 41.5 -57q14 -32.5 14 -69.5q0 -53 -17.5 -87.5q-17.5 -34.5 -57.5 -54.5q22 -8 42 -24.5q20 -16.5 35 -39q15 -22.5 24 -50.5q9 -28 9 -60q0 -50 -16 -89q-16 -39 -46 -66.5q-30 -27.5 -72 -42q-42 -14.5 -94 -14.5q-21 0 -37 1.5q-16 1.5 -26 3.5l0 98q8 -1 17 -2q8 -1 17.5 -1q9.5 0 20.5 0q33 0 57 9.5q24 9.5 39 26q15 16.5 22.5 38q7.5 21.5 7.5 45.5q0 57 -33 87q-33 30 -92 30h-47v94h38q49 0 71.5 23q22.5 23 22.5 67q0 36 -23 61.5q-23 25.5 -74 25.5q-55 0 -83.5 -34q-28.5 -34 -28.5 -97v-476l-110 0z" />
<glyph unicode="&#224;" horiz-adv-x="559" d="M219 -12q-35 0 -66.5 9.5q-31.5 9.5 -55.5 28.5q-24 19 -38 48q-14 29 -14 67q0 81 53 124q53 43 162 43h114v41q0 38 -23.5 60.5q-23.5 22.5 -74.5 22.5q-51 0 -74.5 -21q-23.5 -21 -23.5 -53l-107 0q0 37 12.5 69q12.5 32 37.5 55.5q25 23.5 63.5 36.5q38.5 13 91.5 13q52 0 91.5 -13q39.5 -13 65 -36.5q25.5 -23.5 38.5 -56q13 -32.5 13 -70.5v-356h-64l-42 58q-23 -27 -63 -48.5q-40 -21.5 -96 -21.5zt0 0zM241 88q43 0 76 16.5q33 16.5 57 42.5l0 77h-114q-30 0 -50.5 -6q-20.5 -6 -32.5 -16q-12 -10 -17 -23q-5 -13 -5 -26q0 -33 23.5 -49q23.5 -16 62.5 -16zt0 0zM171 692v38h99l80 -140l-89 0z" />
<glyph unicode="&#225;" horiz-adv-x="559" d="M219 -12q-35 0 -66.5 9.5q-31.5 9.5 -55.5 28.5q-24 19 -38 48q-14 29 -14 67q0 81 53 124q53 43 162 43h114v41q0 38 -23.5 60.5q-23.5 22.5 -74.5 22.5q-51 0 -74.5 -21q-23.5 -21 -23.5 -53l-107 0q0 37 12.5 69q12.5 32 37.5 55.5q25 23.5 63.5 36.5q38.5 13 91.5 13q52 0 91.5 -13q39.5 -13 65 -36.5q25.5 -23.5 38.5 -56q13 -32.5 13 -70.5v-356h-64l-42 58q-23 -27 -63 -48.5q-40 -21.5 -96 -21.5zt0 0zM241 88q43 0 76 16.5q33 16.5 57 42.5l0 77h-114q-30 0 -50.5 -6q-20.5 -6 -32.5 -16q-12 -10 -17 -23q-5 -13 -5 -26q0 -33 23.5 -49q23.5 -16 62.5 -16zt0 0zM299 730h99v-38l-90 -102l-89 0z" />
<glyph unicode="&#226;" horiz-adv-x="559" d="M219 -12q-35 0 -66.5 9.5q-31.5 9.5 -55.5 28.5q-24 19 -38 48q-14 29 -14 67q0 81 53 124q53 43 162 43h114v41q0 38 -23.5 60.5q-23.5 22.5 -74.5 22.5q-51 0 -74.5 -21q-23.5 -21 -23.5 -53l-107 0q0 37 12.5 69q12.5 32 37.5 55.5q25 23.5 63.5 36.5q38.5 13 91.5 13q52 0 91.5 -13q39.5 -13 65 -36.5q25.5 -23.5 38.5 -56q13 -32.5 13 -70.5v-356h-64l-42 58q-23 -27 -63 -48.5q-40 -21.5 -96 -21.5zt0 0zM241 88q43 0 76 16.5q33 16.5 57 42.5l0 77h-114q-30 0 -50.5 -6q-20.5 -6 -32.5 -16q-12 -10 -17 -23q-5 -13 -5 -26q0 -33 23.5 -49q23.5 -16 62.5 -16zt0 0zM131 625l99 105h88l99 -105v-35h-84l-60 67l-60 -67l-82 0z" />
<glyph unicode="&#227;" horiz-adv-x="559" d="M219 -12q-35 0 -66.5 9.5q-31.5 9.5 -55.5 28.5q-24 19 -38 48q-14 29 -14 67q0 81 53 124q53 43 162 43h114v41q0 38 -23.5 60.5q-23.5 22.5 -74.5 22.5q-51 0 -74.5 -21q-23.5 -21 -23.5 -53l-107 0q0 37 12.5 69q12.5 32 37.5 55.5q25 23.5 63.5 36.5q38.5 13 91.5 13q52 0 91.5 -13q39.5 -13 65 -36.5q25.5 -23.5 38.5 -56q13 -32.5 13 -70.5v-356h-64l-42 58q-23 -27 -63 -48.5q-40 -21.5 -96 -21.5zt0 0zM241 88q43 0 76 16.5q33 16.5 57 42.5l0 77h-114q-30 0 -50.5 -6q-20.5 -6 -32.5 -16q-12 -10 -17 -23q-5 -13 -5 -26q0 -33 23.5 -49q23.5 -16 62.5 -16zt0 0zM109 634q23 44 49.5 71q26.5 27 59.5 27q22 0 40 -6.5q18 -6.5 32 -16.5l16 -11q13 -9 25 -14.5q12 -5.5 25 -5.5q11 0 22 10q11 10 29 39l66 -40q-23 -44 -49.5 -71q-26.5 -27 -59.5 -27q-19 0 -35.5 5.5q-16.5 5.5 -28.5 13.5l-17 10q-16 9 -29.5 17q-13.5 8 -27.5 8q-11 0 -22 -10q-11 -10 -29 -39z" />
<glyph unicode="&#228;" horiz-adv-x="559" d="M219 -12q-35 0 -66.5 9.5q-31.5 9.5 -55.5 28.5q-24 19 -38 48q-14 29 -14 67q0 81 53 124q53 43 162 43h114v41q0 38 -23.5 60.5q-23.5 22.5 -74.5 22.5q-51 0 -74.5 -21q-23.5 -21 -23.5 -53l-107 0q0 37 12.5 69q12.5 32 37.5 55.5q25 23.5 63.5 36.5q38.5 13 91.5 13q52 0 91.5 -13q39.5 -13 65 -36.5q25.5 -23.5 38.5 -56q13 -32.5 13 -70.5v-356h-64l-42 58q-23 -27 -63 -48.5q-40 -21.5 -96 -21.5zt0 0zM241 88q43 0 76 16.5q33 16.5 57 42.5l0 77h-114q-30 0 -50.5 -6q-20.5 -6 -32.5 -16q-12 -10 -17 -23q-5 -13 -5 -26q0 -33 23.5 -49q23.5 -16 62.5 -16zt0 0zM121 705h110v-110h-110zM318 705h110v-110l-110 0z" />
<glyph unicode="&#229;" horiz-adv-x="559" d="M219 -12q-35 0 -66.5 9.5q-31.5 9.5 -55.5 28.5q-24 19 -38 48q-14 29 -14 67q0 81 53 124q53 43 162 43h114v41q0 38 -23.5 60.5q-23.5 22.5 -74.5 22.5q-51 0 -74.5 -21q-23.5 -21 -23.5 -53l-107 0q0 37 12.5 69q12.5 32 37.5 55.5q25 23.5 63.5 36.5q38.5 13 91.5 13q52 0 91.5 -13q39.5 -13 65 -36.5q25.5 -23.5 38.5 -56q13 -32.5 13 -70.5v-356h-64l-42 58q-23 -27 -63 -48.5q-40 -21.5 -96 -21.5zt0 0zM241 88q43 0 76 16.5q33 16.5 57 42.5l0 77h-114q-30 0 -50.5 -6q-20.5 -6 -32.5 -16q-12 -10 -17 -23q-5 -13 -5 -26q0 -33 23.5 -49q23.5 -16 62.5 -16zt0 0zM277 627q17 0 30 12q13 12 13 29q0 17 -13 29q-13 12 -30 12q-17 0 -30 -12q-13 -12 -13 -29q0 -17 13 -29q13 -12 30 -12zt0 0zM277 567q-22 0 -41.5 8q-19.5 8 -34.5 21.5q-15 13.5 -23.5 32q-8.5 18.5 -8.5 39.5q0 21 8.5 39.5q8.5 18.5 23.5 32q15 13.5 34.5 21.5q19.5 8 41.5 8q22 0 41.5 -8q19.5 -8 34.5 -21.5q15 -13.5 23.5 -32q8.5 -18.5 8.5 -39.5q0 -21 -8.5 -39.5q-8.5 -18.5 -23.5 -32q-15 -13.5 -34.5 -21.5t-41.5 -8z" />
<glyph unicode="&#230;" horiz-adv-x="867" d="M219 -12q-36 0 -67.5 9.5q-31.5 9.5 -55.5 28.5q-24 19 -37.5 48q-13.5 29 -13.5 67q0 81 53 124q53 43 162 43h114v41q0 38 -23.5 60.5q-23.5 22.5 -74.5 22.5q-51 0 -74.5 -21q-23.5 -21 -23.5 -53l-107 0q0 37 12.5 69q12.5 32 37.5 55.5q25 23.5 63.5 36.5q38.5 13 91.5 13q54 0 93.5 -14q39.5 -14 65.5 -38q29 25 69.5 38.5q40.5 13.5 91.5 13.5q98 0 156 -50q58 -50 58 -141v-117h-326v-43q0 -41 27.5 -67q27.5 -26 84.5 -26q46 0 71 18.5q25 18.5 32 50.5l110 0q-8 -79 -62.5 -124q-54.5 -45 -150.5 -45q-70 0 -121 24q-51 24 -77 69q-26 -36 -71 -64.5q-45 -28.5 -108 -28.5zt0 0zM241 88q43 0 76 16.5q33 16.5 57 42.5l0 77h-114q-30 0 -50.5 -6q-20.5 -6 -32.5 -16q-12 -10 -17 -23q-5 -13 -5 -26q0 -33 23.5 -49q23.5 -16 62.5 -16zt0 0zM700 308v33q0 41 -27 66q-27 25 -81 25q-54 0 -81 -25q-27 -25 -27 -66l0 -33z" />
<glyph unicode="&#231;" horiz-adv-x="539" d="M138 -122l81 115q-76 13 -119 62.5q-43 49.5 -43 125.5v158q0 44 15 80q15 36 43.5 61q28.5 25 68.5 38.5q40 13.5 90 13.5q97 0 154.5 -50q57.5 -50 57.5 -141v-6h-110v6q0 41 -26 66q-26 25 -76 25q-55 0 -81 -25q-26 -25 -26 -66v-162q0 -41 26 -66q26 -25 81 -25q50 0 76 25q26 25 26 66v9h110v-7q0 -81 -48.5 -131.5q-48.5 -50.5 -128.5 -59.5l-72 -150l-99 0z" />
<glyph unicode="&#232;" horiz-adv-x="550" d="M279 -12q-102 0 -162 50q-60 50 -60 141v160q0 44 15.5 80q15.5 36 44.5 61q29 25 70 38.5q41 13.5 92 13.5q98 0 156 -50q58 -50 58 -141v-117h-326v-43q0 -41 27.5 -67q27.5 -26 84.5 -26q46 0 71 18.5q25 18.5 32 50.5l110 0q-8 -79 -62.5 -124q-54.5 -45 -150.5 -45zt0 0zM383 308v33q0 41 -27 66q-27 25 -81 25q-54 0 -81 -25q-27 -25 -27 -66v-33zM174 692v38h99l80 -140l-89 0z" />
<glyph unicode="&#233;" horiz-adv-x="550" d="M279 -12q-102 0 -162 50q-60 50 -60 141v160q0 44 15.5 80q15.5 36 44.5 61q29 25 70 38.5q41 13.5 92 13.5q98 0 156 -50q58 -50 58 -141v-117h-326v-43q0 -41 27.5 -67q27.5 -26 84.5 -26q46 0 71 18.5q25 18.5 32 50.5l110 0q-8 -79 -62.5 -124q-54.5 -45 -150.5 -45zt0 0zM383 308v33q0 41 -27 66q-27 25 -81 25q-54 0 -81 -25q-27 -25 -27 -66v-33zM285 730h99v-38l-90 -102l-89 0z" />
<glyph unicode="&#234;" horiz-adv-x="550" d="M279 -12q-102 0 -162 50q-60 50 -60 141v160q0 44 15.5 80q15.5 36 44.5 61q29 25 70 38.5q41 13.5 92 13.5q98 0 156 -50q58 -50 58 -141v-117h-326v-43q0 -41 27.5 -67q27.5 -26 84.5 -26q46 0 71 18.5q25 18.5 32 50.5l110 0q-8 -79 -62.5 -124q-54.5 -45 -150.5 -45zt0 0zM383 308v33q0 41 -27 66q-27 25 -81 25q-54 0 -81 -25q-27 -25 -27 -66v-33zM135 625l99 105h88l99 -105v-35h-84l-60 67l-60 -67l-82 0z" />
<glyph unicode="&#235;" horiz-adv-x="550" d="M279 -12q-102 0 -162 50q-60 50 -60 141v160q0 44 15.5 80q15.5 36 44.5 61q29 25 70 38.5q41 13.5 92 13.5q98 0 156 -50q58 -50 58 -141v-117h-326v-43q0 -41 27.5 -67q27.5 -26 84.5 -26q46 0 71 18.5q25 18.5 32 50.5l110 0q-8 -79 -62.5 -124q-54.5 -45 -150.5 -45zt0 0zM383 308v33q0 41 -27 66q-27 25 -81 25q-54 0 -81 -25q-27 -25 -27 -66v-33zM124 705h110v-110h-110zM321 705h110v-110l-110 0z" />
<glyph unicode="&#236;" horiz-adv-x="270" d="M80 520h110v-520h-110zM3 690v38h99l80 -140l-89 0z" />
<glyph unicode="&#237;" horiz-adv-x="270" d="M80 520h110v-520h-110zM170 730h99v-38l-90 -102l-89 0z" />
<glyph unicode="&#238;" horiz-adv-x="270" d="M80 520h110v-520h-110zM-8 625l99 105h88l99 -105v-35h-84l-60 67l-60 -67l-82 0z" />
<glyph unicode="&#239;" horiz-adv-x="270" d="M-18 705h110v-110h-110zM179 705h110v-110h-110zM80 520h110v-520l-110 0z" />
<glyph unicode="&#240;" horiz-adv-x="558" d="M279 -12q-51 0 -92 13.5q-41 13.5 -70 38.5q-29 25 -44.5 61q-15.5 36 -15.5 80v105q0 49 14.5 85q14.5 36 40 59.5q25.5 23.5 60 35q34.5 11.5 73.5 11.5q48 0 74.5 -13.5q26.5 -13.5 47.5 -30.5l-78 96h-149v65h96l-47 59v52h99l86 -111h112v-65h-63q21 -30 36 -56q15 -26 24.5 -53.5q9.5 -27.5 13.5 -60q4 -32.5 4 -74.5v-106q0 -91 -60 -141q-60 -50 -162 -50zt0 0zM279 88q57 0 84.5 28.5q27.5 28.5 27.5 69.5v130q-21 24 -49.5 42.5q-28.5 18.5 -68.5 18.5q-46 0 -76 -26q-30 -26 -30 -73v-92q0 -41 27.5 -69.5t84.5 -28.5z" />
<glyph unicode="&#241;" horiz-adv-x="594" d="M80 520h64l41 -58q23 27 60.5 48.5q37.5 21.5 93.5 21.5q40 0 73 -13q33 -13 57 -38q24 -25 37 -62q13 -37 13 -84v-335h-110v325q0 56 -28 81.5q-28 25.5 -67 25.5q-22 0 -41 -7q-19 -7 -35 -17q-16 -10 -28 -22q-12 -12 -20 -21l0 -365h-110zM131 634q23 44 49.5 71q26.5 27 59.5 27q22 0 40 -6.5q18 -6.5 32 -16.5l16 -11q13 -9 25 -14.5q12 -5.5 25 -5.5q11 0 22 10q11 10 29 39l66 -40q-23 -44 -49.5 -71q-26.5 -27 -59.5 -27q-19 0 -35.5 5.5q-16.5 5.5 -28.5 13.5l-17 10q-16 9 -29.5 17q-13.5 8 -27.5 8q-11 0 -22 -10q-11 -10 -29 -39z" />
<glyph unicode="&#242;" horiz-adv-x="558" d="M279 88q57 0 84.5 28.5q27.5 28.5 27.5 69.5v148q0 41 -27.5 69.5q-27.5 28.5 -84.5 28.5q-57 0 -84.5 -28.5q-27.5 -28.5 -27.5 -69.5v-148q0 -41 27.5 -69.5q27.5 -28.5 84.5 -28.5zt0 0zM279 -12q-56 0 -97.5 15q-41.5 15 -69 41q-27.5 26 -41.5 61q-14 35 -14 76v158q0 41 14 76q14 35 41.5 61q27.5 26 69 41q41.5 15 97.5 15q55 0 97 -15q42 -15 69.5 -41q27.5 -26 41.5 -61q14 -35 14 -76v-158q0 -41 -14 -76q-14 -35 -41.5 -61q-27.5 -26 -69.5 -41q-42 -15 -97 -15zt0 0zM159 692v38h99l80 -140l-89 0z" />
<glyph unicode="&#243;" horiz-adv-x="558" d="M279 88q57 0 84.5 28.5q27.5 28.5 27.5 69.5v148q0 41 -27.5 69.5q-27.5 28.5 -84.5 28.5q-57 0 -84.5 -28.5q-27.5 -28.5 -27.5 -69.5v-148q0 -41 27.5 -69.5q27.5 -28.5 84.5 -28.5zt0 0zM279 -12q-56 0 -97.5 15q-41.5 15 -69 41q-27.5 26 -41.5 61q-14 35 -14 76v158q0 41 14 76q14 35 41.5 61q27.5 26 69 41q41.5 15 97.5 15q55 0 97 -15q42 -15 69.5 -41q27.5 -26 41.5 -61q14 -35 14 -76v-158q0 -41 -14 -76q-14 -35 -41.5 -61q-27.5 -26 -69.5 -41q-42 -15 -97 -15zt0 0zM297 730h99v-38l-90 -102l-89 0z" />
<glyph unicode="&#244;" horiz-adv-x="558" d="M279 88q57 0 84.5 28.5q27.5 28.5 27.5 69.5v148q0 41 -27.5 69.5q-27.5 28.5 -84.5 28.5q-57 0 -84.5 -28.5q-27.5 -28.5 -27.5 -69.5v-148q0 -41 27.5 -69.5q27.5 -28.5 84.5 -28.5zt0 0zM279 -12q-56 0 -97.5 15q-41.5 15 -69 41q-27.5 26 -41.5 61q-14 35 -14 76v158q0 41 14 76q14 35 41.5 61q27.5 26 69 41q41.5 15 97.5 15q55 0 97 -15q42 -15 69.5 -41q27.5 -26 41.5 -61q14 -35 14 -76v-158q0 -41 -14 -76q-14 -35 -41.5 -61q-27.5 -26 -69.5 -41q-42 -15 -97 -15zt0 0zM136 625l99 105h88l99 -105v-35h-84l-60 67l-60 -67l-82 0z" />
<glyph unicode="&#245;" horiz-adv-x="558" d="M279 88q57 0 84.5 28.5q27.5 28.5 27.5 69.5v148q0 41 -27.5 69.5q-27.5 28.5 -84.5 28.5q-57 0 -84.5 -28.5q-27.5 -28.5 -27.5 -69.5v-148q0 -41 27.5 -69.5q27.5 -28.5 84.5 -28.5zt0 0zM279 -12q-56 0 -97.5 15q-41.5 15 -69 41q-27.5 26 -41.5 61q-14 35 -14 76v158q0 41 14 76q14 35 41.5 61q27.5 26 69 41q41.5 15 97.5 15q55 0 97 -15q42 -15 69.5 -41q27.5 -26 41.5 -61q14 -35 14 -76v-158q0 -41 -14 -76q-14 -35 -41.5 -61q-27.5 -26 -69.5 -41q-42 -15 -97 -15zt0 0zM97 634q23 44 49.5 71q26.5 27 59.5 27q22 0 40 -6.5q18 -6.5 32 -16.5l16 -11q13 -9 25 -14.5q12 -5.5 25 -5.5q11 0 22 10q11 10 29 39l66 -40q-23 -44 -49.5 -71q-26.5 -27 -59.5 -27q-19 0 -35.5 5.5q-16.5 5.5 -28.5 13.5l-17 10q-16 9 -29.5 17q-13.5 8 -27.5 8q-11 0 -22 -10q-11 -10 -29 -39z" />
<glyph unicode="&#246;" horiz-adv-x="558" d="M279 88q57 0 84.5 28.5q27.5 28.5 27.5 69.5v148q0 41 -27.5 69.5q-27.5 28.5 -84.5 28.5q-57 0 -84.5 -28.5q-27.5 -28.5 -27.5 -69.5v-148q0 -41 27.5 -69.5q27.5 -28.5 84.5 -28.5zt0 0zM279 -12q-56 0 -97.5 15q-41.5 15 -69 41q-27.5 26 -41.5 61q-14 35 -14 76v158q0 41 14 76q14 35 41.5 61q27.5 26 69 41q41.5 15 97.5 15q55 0 97 -15q42 -15 69.5 -41q27.5 -26 41.5 -61q14 -35 14 -76v-158q0 -41 -14 -76q-14 -35 -41.5 -61q-27.5 -26 -69.5 -41q-42 -15 -97 -15zt0 0zM125 705h110v-110h-110zM322 705h110v-110l-110 0z" />
<glyph unicode="&#247;" horiz-adv-x="560" d="M216 197h127v-124h-127zM60 359h440v-92h-440zM216 553h127v-124l-127 0z" />
<glyph unicode="&#248;" horiz-adv-x="564" d="M60 -74l57 116q-29 26 -43 61.5q-14 35.5 -14 77.5v158q0 41 14 76q14 35 41.5 61q27.5 26 69 41q41.5 15 97.5 15q38 0 73 -8l61 122h88v-52l-58 -116q29 -26 43.5 -61.5q14.5 -35.5 14.5 -77.5v-158q0 -41 -14 -76q-14 -35 -41.5 -61q-27.5 -26 -69.5 -41q-42 -15 -97 -15q-39 0 -74 8l-60 -122h-88zM317 428q-8 2 -16.5 3q-8.5 1 -18.5 1q-57 0 -84.5 -28.5q-27.5 -28.5 -27.5 -69.5v-148q0 -21 8 -40zM282 88q57 0 84.5 28.5q27.5 28.5 27.5 69.5v148q0 21 -9 41l-140 -283q15 -4 37 -4z" />
<glyph unicode="&#249;" horiz-adv-x="591" d="M253 -12q-79 0 -128.5 51q-49.5 51 -49.5 146v335h110v-325q0 -56 27.5 -81.5q27.5 -25.5 66.5 -25.5q21 0 40 7q19 7 34.5 17q15.5 10 27.5 22q12 12 20 21l0 365h110v-520h-64l-42 58q-23 -27 -60 -48.5q-37 -21.5 -92 -21.5zt0 0zM191 692v38h99l80 -140l-89 0z" />
<glyph unicode="&#250;" horiz-adv-x="591" d="M253 -12q-79 0 -128.5 51q-49.5 51 -49.5 146v335h110v-325q0 -56 27.5 -81.5q27.5 -25.5 66.5 -25.5q21 0 40 7q19 7 34.5 17q15.5 10 27.5 22q12 12 20 21l0 365h110v-520h-64l-42 58q-23 -27 -60 -48.5q-37 -21.5 -92 -21.5zt0 0zM298 730h99v-38l-90 -102l-89 0z" />
<glyph unicode="&#251;" horiz-adv-x="591" d="M253 -12q-79 0 -128.5 51q-49.5 51 -49.5 146v335h110v-325q0 -56 27.5 -81.5q27.5 -25.5 66.5 -25.5q21 0 40 7q19 7 34.5 17q15.5 10 27.5 22q12 12 20 21l0 365h110v-520h-64l-42 58q-23 -27 -60 -48.5q-37 -21.5 -92 -21.5zt0 0zM152 625l99 105h88l99 -105v-35h-84l-60 67l-60 -67l-82 0z" />
<glyph unicode="&#252;" horiz-adv-x="591" d="M253 -12q-79 0 -128.5 51q-49.5 51 -49.5 146v335h110v-325q0 -56 27.5 -81.5q27.5 -25.5 66.5 -25.5q21 0 40 7q19 7 34.5 17q15.5 10 27.5 22q12 12 20 21l0 365h110v-520h-64l-42 58q-23 -27 -60 -48.5q-37 -21.5 -92 -21.5zt0 0zM142 705h110v-110h-110zM339 705h110v-110l-110 0z" />
<glyph unicode="&#253;" horiz-adv-x="511" d="M153 -120l52 120l-185 468v52h102l137 -370l131 370h101v-52l-248 -628h-90zM277 730h99v-38l-90 -102l-89 0z" />
<glyph unicode="&#254;" horiz-adv-x="589" d="M80 705h110v-236q19 23 55.5 43q36.5 20 90.5 20q39 0 73 -11.5q34 -11.5 59.5 -35q25.5 -23.5 40.5 -59.5q15 -36 15 -85v-162q0 -49 -15 -85q-15 -36 -40.5 -59.5q-25.5 -23.5 -59.5 -35q-34 -11.5 -73 -11.5q-54 0 -90.5 20q-36.5 20 -55.5 43l0 -211h-110zM316 88q40 0 69 26q29 26 29 73v146q0 47 -29 73q-29 26 -68 26q-42 0 -73 -21.5q-31 -21.5 -54 -45.5l0 -210q23 -24 53.5 -45.5t72.5 -21.5z" />
<glyph unicode="&#255;" horiz-adv-x="511" d="M153 -120l52 120l-185 468v52h102l137 -370l131 370h101v-52l-248 -628h-90zM102 705h110v-110h-110zM299 705h110v-110l-110 0z" />
<glyph unicode="&#256;" horiz-adv-x="658" d="M20 40l250 660h118l250 -660v-40h-118l-62 173h-264l-63 -173h-111zM422 273l-95 267l-97 -267zM165 876h329v-97l-329 0z" />
<glyph unicode="&#257;" horiz-adv-x="559" d="M219 -12q-35 0 -66.5 9.5q-31.5 9.5 -55.5 28.5q-24 19 -38 48q-14 29 -14 67q0 81 53 124q53 43 162 43h114v41q0 38 -23.5 60.5q-23.5 22.5 -74.5 22.5q-51 0 -74.5 -21q-23.5 -21 -23.5 -53l-107 0q0 37 12.5 69q12.5 32 37.5 55.5q25 23.5 63.5 36.5q38.5 13 91.5 13q52 0 91.5 -13q39.5 -13 65 -36.5q25.5 -23.5 38.5 -56q13 -32.5 13 -70.5v-356h-64l-42 58q-23 -27 -63 -48.5q-40 -21.5 -96 -21.5zt0 0zM241 88q43 0 76 16.5q33 16.5 57 42.5l0 77h-114q-30 0 -50.5 -6q-20.5 -6 -32.5 -16q-12 -10 -17 -23q-5 -13 -5 -26q0 -33 23.5 -49q23.5 -16 62.5 -16zt0 0zM127 695h307v-90l-307 0z" />
<glyph unicode="&#260;" horiz-adv-x="658" d="M626 -160q-48 0 -75.5 19.5q-27.5 19.5 -27.5 53.5q0 18 12 40q12 22 39 47l-54 0l-62 173h-264l-63 -173h-111v40l250 660h118l250 -660v-40q-23 -18 -32.5 -32.5q-9.5 -14.5 -9.5 -28.5q0 -32 52 -32h34v-67zM422 273l-95 267l-97 -267z" />
<glyph unicode="&#261;" horiz-adv-x="559" d="M472 -160q-48 0 -75.5 19.5q-27.5 19.5 -27.5 53.5q0 18 12 40q12 22 39 47l-42 58q-23 -27 -63 -48.5q-40 -21.5 -96 -21.5q-35 0 -66.5 9.5q-31.5 9.5 -55.5 28.5q-24 19 -38 48q-14 29 -14 67q0 81 53 124q53 43 162 43h114v41q0 38 -23.5 60.5q-23.5 22.5 -74.5 22.5q-51 0 -74.5 -21q-23.5 -21 -23.5 -53l-107 0q0 37 12.5 69q12.5 32 37.5 55.5q25 23.5 63.5 36.5q38.5 13 91.5 13q52 0 91.5 -13q39.5 -13 65 -36.5q25.5 -23.5 38.5 -56q13 -32.5 13 -70.5v-356q-23 -18 -32.5 -32.5q-9.5 -14.5 -9.5 -28.5q0 -32 52 -32h34v-67zM241 88q43 0 76 16.5q33 16.5 57 42.5l0 77h-114q-30 0 -50.5 -6q-20.5 -6 -32.5 -16q-12 -10 -17 -23q-5 -13 -5 -26q0 -33 23.5 -49t62.5 -16z" />
<glyph unicode="&#262;" horiz-adv-x="660" d="M342 -15q-131 0 -201.5 66q-70.5 66 -70.5 186v226q0 120 70.5 186q70.5 66 201.5 66q51 0 98 -14q47 -14 82.5 -43.5q35.5 -29.5 56.5 -75.5q21 -46 21 -109v-10h-120v10q0 35 -13 60q-13 25 -33.5 41q-20.5 16 -45 23.5q-24.5 7.5 -47.5 7.5q-78 0 -114.5 -35.5q-36.5 -35.5 -36.5 -98.5v-242q0 -63 36.5 -98.5q36.5 -35.5 114.5 -35.5q23 0 47.5 7.5q24.5 7.5 45 23.5q20.5 16 33.5 41q13 25 13 60v10h120v-10q0 -63 -21 -109q-21 -46 -56.5 -75.5q-35.5 -29.5 -82.5 -43.5q-47 -14 -98 -14zt0 0zM356 913h106v-41l-96 -110l-96 0z" />
<glyph unicode="&#263;" horiz-adv-x="539" d="M274 -12q-50 0 -90 13.5q-40 13.5 -68.5 38.5q-28.5 25 -43.5 61q-15 36 -15 80v158q0 44 15 80q15 36 43.5 61q28.5 25 68.5 38.5q40 13.5 90 13.5q97 0 154.5 -50q57.5 -50 57.5 -141v-6h-110v6q0 41 -26 66q-26 25 -76 25q-55 0 -81 -25q-26 -25 -26 -66v-162q0 -41 26 -66q26 -25 81 -25q50 0 76 25q26 25 26 66v9h110v-7q0 -44 -15.5 -80q-15.5 -36 -43.5 -61q-28 -25 -67 -38.5q-39 -13.5 -86 -13.5zt0 0zM309 730h99v-38l-90 -102l-89 0z" />
<glyph unicode="&#268;" horiz-adv-x="660" d="M342 -15q-131 0 -201.5 66q-70.5 66 -70.5 186v226q0 120 70.5 186q70.5 66 201.5 66q51 0 98 -14q47 -14 82.5 -43.5q35.5 -29.5 56.5 -75.5q21 -46 21 -109v-10h-120v10q0 35 -13 60q-13 25 -33.5 41q-20.5 16 -45 23.5q-24.5 7.5 -47.5 7.5q-78 0 -114.5 -35.5q-36.5 -35.5 -36.5 -98.5v-242q0 -63 36.5 -98.5q36.5 -35.5 114.5 -35.5q23 0 47.5 7.5q24.5 7.5 45 23.5q20.5 16 33.5 41q13 25 13 60v10h120v-10q0 -63 -21 -109q-21 -46 -56.5 -75.5q-35.5 -29.5 -82.5 -43.5q-47 -14 -98 -14zt0 0zM184 876v37h90l65 -82l64 82h88v-37l-106 -113l-95 0z" />
<glyph unicode="&#269;" horiz-adv-x="539" d="M274 -12q-50 0 -90 13.5q-40 13.5 -68.5 38.5q-28.5 25 -43.5 61q-15 36 -15 80v158q0 44 15 80q15 36 43.5 61q28.5 25 68.5 38.5q40 13.5 90 13.5q97 0 154.5 -50q57.5 -50 57.5 -141v-6h-110v6q0 41 -26 66q-26 25 -76 25q-55 0 -81 -25q-26 -25 -26 -66v-162q0 -41 26 -66q26 -25 81 -25q50 0 76 25q26 25 26 66v9h110v-7q0 -44 -15.5 -80q-15.5 -36 -43.5 -61q-28 -25 -67 -38.5q-39 -13.5 -86 -13.5zt0 0zM138 695v35h84l60 -77l60 77h82v-35l-99 -105l-88 0z" />
<glyph unicode="&#270;" horiz-adv-x="685" d="M340 105q38 0 67 10.5q29 10.5 48.5 28.5q19.5 18 29.5 42.5q10 24.5 10 52.5v222q0 28 -10 52.5q-10 24.5 -29.5 42.5q-19.5 18 -48.5 28.5q-29 10.5 -67 10.5h-130v-490zM90 700h250q63 0 114 -16q51 -16 86.5 -47q35.5 -31 55 -76q19.5 -45 19.5 -103v-216q0 -58 -19.5 -103q-19.5 -45 -55 -76q-35.5 -31 -86.5 -47q-51 -16 -114 -16h-250zM164 876v37h90l65 -82l64 82h88v-37l-106 -113l-95 0z" />
<glyph unicode="&#271;" horiz-adv-x="714" d="M249 -12q-37 0 -70.5 11.5q-33.5 11.5 -58.5 35q-25 23.5 -40 59.5q-15 36 -15 85v162q0 49 14.5 85q14.5 36 40 59.5q25.5 23.5 60 35q34.5 11.5 73.5 11.5q54 0 90.5 -20q36.5 -20 55.5 -43l0 236h110v-705h-64l-41 58q-23 -27 -61 -48.5q-38 -21.5 -94 -21.5zt0 0zM273 88q42 0 72.5 21.5q30.5 21.5 53.5 45.5l0 210q-23 24 -54 45.5q-31 21.5 -73 21.5q-39 0 -68 -26q-29 -26 -29 -73v-146q0 -47 29 -73q29 -26 69 -26zt0 0zM619 705h120v-50l-73 -160l-85 0z" />
<glyph unicode="&#274;" horiz-adv-x="590" d="M90 700h449v-105h-329v-194h282v-100h-282v-196h330v-105h-450zM148 876h329v-97l-329 0z" />
<glyph unicode="&#275;" horiz-adv-x="550" d="M279 -12q-102 0 -162 50q-60 50 -60 141v160q0 44 15.5 80q15.5 36 44.5 61q29 25 70 38.5q41 13.5 92 13.5q98 0 156 -50q58 -50 58 -141v-117h-326v-43q0 -41 27.5 -67q27.5 -26 84.5 -26q46 0 71 18.5q25 18.5 32 50.5l110 0q-8 -79 -62.5 -124q-54.5 -45 -150.5 -45zt0 0zM383 308v33q0 41 -27 66q-27 25 -81 25q-54 0 -81 -25q-27 -25 -27 -66v-33zM126 695h307v-90l-307 0z" />
<glyph unicode="&#278;" horiz-adv-x="590" d="M90 700h449v-105h-329v-194h282v-100h-282v-196h330v-105h-450zM252 886h118v-118l-118 0z" />
<glyph unicode="&#279;" horiz-adv-x="550" d="M279 -12q-102 0 -162 50q-60 50 -60 141v160q0 44 15.5 80q15.5 36 44.5 61q29 25 70 38.5q41 13.5 92 13.5q98 0 156 -50q58 -50 58 -141v-117h-326v-43q0 -41 27.5 -67q27.5 -26 84.5 -26q46 0 71 18.5q25 18.5 32 50.5l110 0q-8 -79 -62.5 -124q-54.5 -45 -150.5 -45zt0 0zM383 308v33q0 41 -27 66q-27 25 -81 25q-54 0 -81 -25q-27 -25 -27 -66v-33zM226 705h110v-110l-110 0z" />
<glyph unicode="&#280;" horiz-adv-x="600" d="M528 -160q-48 0 -75.5 19.5q-27.5 19.5 -27.5 53.5q0 18 12 40q12 22 39 47l-386 0v700h450v-105h-330v-195h282v-100h-282v-195h330v-105q-23 -18 -32.5 -32.5q-9.5 -14.5 -9.5 -28.5q0 -32 52 -32h34v-67l-56 0z" />
<glyph unicode="&#281;" horiz-adv-x="550" d="M381 -160q-48 0 -75.5 19.5q-27.5 19.5 -27.5 53.5q0 17 10 37q10 20 33 42q-8 -2 -20.5 -3q-12.5 -1 -21.5 -1q-102 0 -162 50q-60 50 -60 141v160q0 44 15.5 80q15.5 36 44.5 61q29 25 70 38.5q41 13.5 92 13.5q98 0 156 -50q58 -50 58 -141v-117h-326v-43q0 -41 27.5 -67q27.5 -26 84.5 -26q46 0 71 18.5q25 18.5 32 50.5l110 0q-3 -29 -13 -53q-10 -24 -24 -43q-14 -19 -30.5 -34q-16.5 -15 -31.5 -27q-42 -32 -42 -61q0 -32 52 -32h34v-67zM383 308v33q0 41 -27 66q-27 25 -81 25q-54 0 -81 -25q-27 -25 -27 -66l0 -33z" />
<glyph unicode="&#282;" horiz-adv-x="590" d="M90 700h449v-105h-329v-194h282v-100h-282v-196h330v-105h-450zM164 876v37h90l65 -82l64 82h88v-37l-106 -113l-95 0z" />
<glyph unicode="&#283;" horiz-adv-x="550" d="M279 -12q-102 0 -162 50q-60 50 -60 141v160q0 44 15.5 80q15.5 36 44.5 61q29 25 70 38.5q41 13.5 92 13.5q98 0 156 -50q58 -50 58 -141v-117h-326v-43q0 -41 27.5 -67q27.5 -26 84.5 -26q46 0 71 18.5q25 18.5 32 50.5l110 0q-8 -79 -62.5 -124q-54.5 -45 -150.5 -45zt0 0zM383 308v33q0 41 -27 66q-27 25 -81 25q-54 0 -81 -25q-27 -25 -27 -66v-33zM136 695v35h84l60 -77l60 77h82v-35l-99 -105l-88 0z" />
<glyph unicode="&#290;" horiz-adv-x="695" d="M283 -67h120v-50l-73 -160h-85zM331 -15q-121 0 -191 65q-70 65 -70 184v229q0 120 73 186q73 66 204 66q51 0 98.5 -14q47.5 -14 84 -43.5q36.5 -29.5 58.5 -74.5q22 -45 22 -106v-4h-120v4q0 58 -39 93q-39 35 -109 35q-70 0 -111 -35.5q-41 -35.5 -41 -98.5v-237q0 -66 38.5 -102.5q38.5 -36.5 109.5 -36.5q49 0 89 22q40 22 63 63l0 90h-138v100h258v-370h-65l-36 66q-66 -81 -178 -81z" />
<glyph unicode="&#291;" horiz-adv-x="589" d="M294 -172q-49 0 -88.5 12q-39.5 12 -68 34q-28.5 22 -44 54q-15.5 32 -15.5 72l110 0q0 -12 6 -25q6 -13 18.5 -23.5q12.5 -10.5 32.5 -17q20 -6.5 49 -6.5q57 0 81 26.5q24 26.5 24 71.5v78q-19 -23 -55.5 -43q-36.5 -20 -90.5 -20q-39 0 -73.5 11.5q-34.5 11.5 -60 35q-25.5 23.5 -40 59.5q-14.5 36 -14.5 85v109q0 49 15 85q15 36 40 59.5q25 23.5 58.5 35q33.5 11.5 70.5 11.5q56 0 94 -21.5q38 -21.5 61 -48.5l41 58h64v-491q0 -51 -15.5 -89q-15.5 -38 -43.5 -62.5q-28 -24.5 -67.5 -37q-39.5 -12.5 -88.5 -12.5zt0 0zM277 141q41 0 71 20.5q30 20.5 51 44.5l0 161q-21 24 -51 44.5q-30 20.5 -71 20.5q-44 0 -73 -25q-29 -25 -29 -72v-97q0 -47 29 -72q29 -25 73 -25zt0 0zM356 586h-110v50l67 160l77 0z" />
<glyph unicode="&#298;" horiz-adv-x="300" d="M90 700h120v-700h-120zM-14 876h329v-97l-329 0z" />
<glyph unicode="&#299;" horiz-adv-x="270" d="M80 520h110v-520h-110zM-18 695h307v-90l-307 0z" />
<glyph unicode="&#302;" horiz-adv-x="300" d="M198 -160q-48 0 -75.5 19.5q-27.5 19.5 -27.5 53.5q0 18 12 40q12 22 39 47l-56 0v700h120v-700q-23 -18 -32.5 -32.5q-9.5 -14.5 -9.5 -28.5q0 -32 52 -32h34v-67l-56 0z" />
<glyph unicode="&#303;" horiz-adv-x="270" d="M178 -160q-48 0 -75.5 19.5q-27.5 19.5 -27.5 53.5q0 18 12 40q12 22 39 47l-46 0v520h110v-520q-23 -18 -32.5 -32.5q-9.5 -14.5 -9.5 -28.5q0 -32 52 -32h34v-67zM80 705h110v-110l-110 0z" />
<glyph unicode="&#305;" horiz-adv-x="270" d="M80 520h110v-520l-110 0z" />
<glyph unicode="&#310;" horiz-adv-x="627" d="M90 700h120v-297h89l183 297h111v-40l-189 -303l203 -317v-40h-118l-190 298h-89v-298h-120zM281 -67h120v-50l-73 -160l-85 0z" />
<glyph unicode="&#311;" horiz-adv-x="542" d="M80 705h110v-391h69l137 206h91v-52l-130 -196l145 -220v-52h-99l-145 218h-68v-218h-110zM226 -67h110v-50l-67 -160l-77 0z" />
<glyph unicode="&#313;" horiz-adv-x="565" d="M90 700h120v-595h335v-105h-455zM191 913h106v-41l-96 -110l-96 0z" />
<glyph unicode="&#314;" horiz-adv-x="270" d="M80 705h110v-705h-110zM171 896h99v-38l-90 -102l-89 0z" />
<glyph unicode="&#315;" horiz-adv-x="565" d="M262 -67h120v-50l-73 -160h-85zM90 700h120v-595h335v-105l-455 0z" />
<glyph unicode="&#316;" horiz-adv-x="270" d="M80 705h110v-705h-110zM80 -67h110v-50l-67 -160l-77 0z" />
<glyph unicode="&#317;" horiz-adv-x="565" d="M90 700h120v-595h335v-105h-455zM425 700h120v-50l-73 -160l-85 0z" />
<glyph unicode="&#318;" horiz-adv-x="395" d="M80 705h110v-705h-110zM300 705h120v-50l-73 -160l-85 0z" />
<glyph unicode="&#321;" horiz-adv-x="603" d="M128 229l-68 -51h-40v100l108 81v341h120v-250l119 90h40v-100l-159 -120v-215h335v-105l-455 0z" />
<glyph unicode="&#322;" horiz-adv-x="405" d="M147 226l-95 -103h-52v84l147 160v338h110v-219l96 105h52v-84l-148 -161v-346l-110 0z" />
<glyph unicode="&#323;" horiz-adv-x="710" d="M90 700h110l300 -477v477h120v-700h-110l-300 477v-477h-120zM360 913h106v-41l-96 -110l-96 0z" />
<glyph unicode="&#324;" horiz-adv-x="594" d="M80 520h64l41 -58q23 27 60.5 48.5q37.5 21.5 93.5 21.5q40 0 73 -13q33 -13 57 -38q24 -25 37 -62q13 -37 13 -84v-335h-110v325q0 56 -28 81.5q-28 25.5 -67 25.5q-22 0 -41 -7q-19 -7 -35 -17q-16 -10 -28 -22q-12 -12 -20 -21l0 -365h-110zM327 730h99v-38l-90 -102l-89 0z" />
<glyph unicode="&#325;" horiz-adv-x="710" d="M90 700h110l300 -477v477h120v-700h-110l-300 477v-477h-120zM299 -67h120v-50l-73 -160l-85 0z" />
<glyph unicode="&#326;" horiz-adv-x="594" d="M246 -67h110v-50l-67 -160h-77zM80 520h64l41 -58q23 27 60.5 48.5q37.5 21.5 93.5 21.5q40 0 73 -13q33 -13 57 -38q24 -25 37 -62q13 -37 13 -84v-335h-110v325q0 56 -28 81.5q-28 25.5 -67 25.5q-22 0 -41 -7q-19 -7 -35 -17q-16 -10 -28 -22q-12 -12 -20 -21l0 -365l-110 0z" />
<glyph unicode="&#327;" horiz-adv-x="710" d="M90 700h110l300 -477v477h120v-700h-110l-300 477v-477h-120zM200 876v37h90l65 -82l64 82h88v-37l-106 -113l-95 0z" />
<glyph unicode="&#328;" horiz-adv-x="594" d="M80 520h64l41 -58q23 27 60.5 48.5q37.5 21.5 93.5 21.5q40 0 73 -13q33 -13 57 -38q24 -25 37 -62q13 -37 13 -84v-335h-110v325q0 56 -28 81.5q-28 25.5 -67 25.5q-22 0 -41 -7q-19 -7 -35 -17q-16 -10 -28 -22q-12 -12 -20 -21l0 -365h-110zM159 695v35h84l60 -77l60 77h82v-35l-99 -105l-88 0z" />
<glyph unicode="&#332;" horiz-adv-x="690" d="M345 95q39 0 68 10.5q29 10.5 48.5 29q19.5 18.5 29 43.5q9.5 25 9.5 53v238q0 28 -9.5 53q-9.5 25 -29 43.5q-19.5 18.5 -48.5 29q-29 10.5 -68 10.5q-39 0 -68 -10.5q-29 -10.5 -48.5 -29q-19.5 -18.5 -29 -43.5q-9.5 -25 -9.5 -53v-238q0 -28 9.5 -53q9.5 -25 29 -43.5q19.5 -18.5 48.5 -29q29 -10.5 68 -10.5zt0 0zM345 -15q-63 0 -114 17q-51 17 -86.5 49.5q-35.5 32.5 -55 79q-19.5 46.5 -19.5 106.5v226q0 60 19.5 106.5q19.5 46.5 55 79q35.5 32.5 86.5 49.5q51 17 114 17q63 0 114 -17q51 -17 86.5 -49.5q35.5 -32.5 55 -79q19.5 -46.5 19.5 -106.5v-226q0 -60 -19.5 -106.5q-19.5 -46.5 -55 -79q-35.5 -32.5 -86.5 -49.5q-51 -17 -114 -17zt0 0zM180 876h329v-97l-329 0z" />
<glyph unicode="&#333;" horiz-adv-x="558" d="M279 88q57 0 84.5 28.5q27.5 28.5 27.5 69.5v148q0 41 -27.5 69.5q-27.5 28.5 -84.5 28.5q-57 0 -84.5 -28.5q-27.5 -28.5 -27.5 -69.5v-148q0 -41 27.5 -69.5q27.5 -28.5 84.5 -28.5zt0 0zM279 -12q-56 0 -97.5 15q-41.5 15 -69 41q-27.5 26 -41.5 61q-14 35 -14 76v158q0 41 14 76q14 35 41.5 61q27.5 26 69 41q41.5 15 97.5 15q55 0 97 -15q42 -15 69.5 -41q27.5 -26 41.5 -61q14 -35 14 -76v-158q0 -41 -14 -76q-14 -35 -41.5 -61q-27.5 -26 -69.5 -41q-42 -15 -97 -15zt0 0zM126 695h307v-90l-307 0z" />
<glyph unicode="&#335;" horiz-adv-x="558" d="M279 88q57 0 84.5 28.5q27.5 28.5 27.5 69.5v148q0 41 -27.5 69.5q-27.5 28.5 -84.5 28.5q-57 0 -84.5 -28.5q-27.5 -28.5 -27.5 -69.5v-148q0 -41 27.5 -69.5q27.5 -28.5 84.5 -28.5zt0 0zM279 -12q-56 0 -97.5 15q-41.5 15 -69 41q-27.5 26 -41.5 61q-14 35 -14 76v158q0 41 14 76q14 35 41.5 61q27.5 26 69 41q41.5 15 97.5 15q55 0 97 -15q42 -15 69.5 -41q27.5 -26 41.5 -61q14 -35 14 -76v-158q0 -41 -14 -76q-14 -35 -41.5 -61q-27.5 -26 -69.5 -41q-42 -15 -97 -15zt0 0zM281 585q-72 0 -116.5 35.5q-44.5 35.5 -44.5 101.5v12h94v-11q0 -26 16.5 -42q16.5 -16 50.5 -16q35 0 51.5 16q16.5 16 16.5 42v11h93v-12q0 -66 -44.5 -101.5t-116.5 -35.5z" />
<glyph unicode="&#336;" horiz-adv-x="690" d="M345 95q39 0 68 10.5q29 10.5 48.5 29q19.5 18.5 29 43.5q9.5 25 9.5 53v238q0 28 -9.5 53q-9.5 25 -29 43.5q-19.5 18.5 -48.5 29q-29 10.5 -68 10.5q-39 0 -68 -10.5q-29 -10.5 -48.5 -29q-19.5 -18.5 -29 -43.5q-9.5 -25 -9.5 -53v-238q0 -28 9.5 -53q9.5 -25 29 -43.5q19.5 -18.5 48.5 -29q29 -10.5 68 -10.5zt0 0zM345 -15q-63 0 -114 17q-51 17 -86.5 49.5q-35.5 32.5 -55 79q-19.5 46.5 -19.5 106.5v226q0 60 19.5 106.5q19.5 46.5 55 79q35.5 32.5 86.5 49.5q51 17 114 17q63 0 114 -17q51 -17 86.5 -49.5q35.5 -32.5 55 -79q19.5 -46.5 19.5 -106.5v-226q0 -60 -19.5 -106.5q-19.5 -46.5 -55 -79q-35.5 -32.5 -86.5 -49.5q-51 -17 -114 -17zt0 0zM275 913h106v-40l-96 -110h-96zM462 913h106v-40l-97 -110l-95 0z" />
<glyph unicode="&#337;" horiz-adv-x="558" d="M279 88q57 0 84.5 28.5q27.5 28.5 27.5 69.5v148q0 41 -27.5 69.5q-27.5 28.5 -84.5 28.5q-57 0 -84.5 -28.5q-27.5 -28.5 -27.5 -69.5v-148q0 -41 27.5 -69.5q27.5 -28.5 84.5 -28.5zt0 0zM279 -12q-56 0 -97.5 15q-41.5 15 -69 41q-27.5 26 -41.5 61q-14 35 -14 76v158q0 41 14 76q14 35 41.5 61q27.5 26 69 41q41.5 15 97.5 15q55 0 97 -15q42 -15 69.5 -41q27.5 -26 41.5 -61q14 -35 14 -76v-158q0 -41 -14 -76q-14 -35 -41.5 -61q-27.5 -26 -69.5 -41q-42 -15 -97 -15zt0 0zM216 730h99v-38l-90 -102h-89zM390 730h99v-38l-90 -102l-89 0z" />
<glyph unicode="&#338;" horiz-adv-x="1000" d="M345 -15q-63 0 -114 17q-51 17 -86.5 49.5q-35.5 32.5 -55 79q-19.5 46.5 -19.5 106.5v226q0 60 19.5 106.5q19.5 46.5 55 79q35.5 32.5 86.5 49.5q51 17 114 17q45 0 84 -14q39 -14 71 -39l0 38h449v-105h-329v-194h282v-100h-282v-196h330v-105h-450v37q-32 -24 -71 -38q-39 -14 -84 -14zt0 0zM345 95q76 0 115.5 38q39.5 38 39.5 92v244q0 28 -9.5 53q-9.5 25 -29 43.5q-19.5 18.5 -48.5 29q-29 10.5 -68 10.5q-39 0 -68 -10.5q-29 -10.5 -48.5 -29q-19.5 -18.5 -29 -43.5q-9.5 -25 -9.5 -53v-238q0 -28 9.5 -53q9.5 -25 29 -43.5q19.5 -18.5 48.5 -29t68 -10.5z" />
<glyph unicode="&#339;" horiz-adv-x="884" d="M279 -12q-56 0 -97.5 15q-41.5 15 -69 41q-27.5 26 -41.5 61q-14 35 -14 76v158q0 41 14 76q14 35 41.5 61q27.5 26 69 41q41.5 15 97.5 15q56 0 97.5 -15.5q41.5 -15.5 69.5 -41.5q29 27 71 42q42 15 96 15q98 0 156 -50q58 -50 58 -141v-117h-326v-47q0 -39 28.5 -64q28.5 -25 83.5 -25q46 0 71 18.5q25 18.5 32 50.5l110 0q-8 -79 -62.5 -124q-54.5 -45 -150.5 -45q-108 0 -168 55q-28 -26 -69 -40.5q-41 -14.5 -97 -14.5zt0 0zM279 88q57 0 84.5 28.5q27.5 28.5 27.5 69.5v148q0 41 -27.5 69.5q-27.5 28.5 -84.5 28.5q-57 0 -84.5 -28.5q-27.5 -28.5 -27.5 -69.5v-148q0 -41 27.5 -69.5q27.5 -28.5 84.5 -28.5zt0 0zM717 308v33q0 41 -27 66q-27 25 -81 25q-54 0 -81 -25q-27 -25 -27 -66l0 -33z" />
<glyph unicode="&#340;" horiz-adv-x="660" d="M343 913h106v-41l-96 -110h-96zM90 700h301q104 0 157.5 -57q53.5 -57 53.5 -158q0 -69 -30 -122.5q-30 -53.5 -93 -79.5l131 -243v-40h-118l-144 269h-138v-269h-120zM369 371q53 0 82 26.5q29 26.5 29 85.5q0 59 -29 85.5q-29 26.5 -82 26.5h-159l0 -224z" />
<glyph unicode="&#341;" horiz-adv-x="370" d="M80 520h55l42 -58q22 25 58 47.5q36 22.5 85 22.5h20v-105h-15q-45 0 -77 -13q-32 -13 -58 -43l0 -371h-110zM228 730h99v-38l-90 -102l-89 0z" />
<glyph unicode="&#342;" horiz-adv-x="660" d="M287 -67h120v-50l-73 -160h-85zM90 700h301q104 0 157.5 -57q53.5 -57 53.5 -158q0 -69 -30 -122.5q-30 -53.5 -93 -79.5l131 -243v-40h-118l-144 269h-138v-269h-120zM369 371q53 0 82 26.5q29 26.5 29 85.5q0 59 -29 85.5q-29 26.5 -82 26.5h-159l0 -224z" />
<glyph unicode="&#343;" horiz-adv-x="370" d="M80 -67h110v-50l-67 -160h-77zM80 520h55l42 -58q22 25 58 47.5q36 22.5 85 22.5h20v-105h-15q-45 0 -77 -13q-32 -13 -58 -43l0 -371l-110 0z" />
<glyph unicode="&#344;" horiz-adv-x="660" d="M164 876v37h90l65 -82l64 82h88v-37l-106 -113h-95zM90 700h301q104 0 157.5 -57q53.5 -57 53.5 -158q0 -69 -30 -122.5q-30 -53.5 -93 -79.5l131 -243v-40h-118l-144 269h-138v-269h-120zM369 371q53 0 82 26.5q29 26.5 29 85.5q0 59 -29 85.5q-29 26.5 -82 26.5h-159l0 -224z" />
<glyph unicode="&#345;" horiz-adv-x="370" d="M80 520h55l42 -58q22 25 58 47.5q36 22.5 85 22.5h20v-105h-15q-45 0 -77 -13q-32 -13 -58 -43l0 -371h-110zM63 695v35h84l60 -77l60 77h82v-35l-99 -105l-88 0z" />
<glyph unicode="&#346;" horiz-adv-x="642" d="M317 -15q-55 0 -104 14.5q-49 14.5 -86.5 44.5q-37.5 30 -59.5 75.5q-22 45.5 -22 107.5l120 0q0 -39 15 -64.5q15 -25.5 38.5 -40.5q23.5 -15 51.5 -21q28 -6 54 -6q65 0 98 26q33 26 33 65q0 21 -10.5 35.5q-10.5 14.5 -30.5 27q-20 12.5 -50.5 24.5q-30.5 12 -70.5 27l-16 6q-50 19 -89 37q-39 18 -67 41.5q-28 23.5 -42.5 53.5q-14.5 30 -14.5 73q0 46 17.5 83.5q17.5 37.5 50 64.5q32.5 27 79 41.5q46.5 14.5 105.5 14.5q55 0 103 -13q48 -13 82.5 -41.5q34.5 -28.5 54.5 -73.5q20 -45 20 -108l-120 0q0 35 -12 59q-12 24 -31.5 39q-19.5 15 -45 21.5q-25.5 6.5 -52.5 6.5q-60 0 -95 -24q-35 -24 -35 -61q0 -22 9 -37.5q9 -15.5 28 -27.5q19 -12 47.5 -23q28.5 -11 66.5 -24l14 -5q46 -17 88.5 -34.5q42.5 -17.5 74 -41.5q31.5 -24 50.5 -56.5q19 -32.5 19 -78.5q0 -44 -16.5 -82q-16.5 -38 -50 -66q-33.5 -28 -83 -43.5q-49.5 -15.5 -115.5 -15.5zt0 0zM337 913h106v-41l-96 -110l-96 0z" />
<glyph unicode="&#347;" horiz-adv-x="553" d="M278 -12q-52 0 -94 12.5q-42 12.5 -72 37q-30 24.5 -46 60q-16 35.5 -16 81.5l110 0q0 -45 35 -68q35 -23 92 -23q45 0 70.5 15.5q25.5 15.5 25.5 41.5q0 19 -12.5 32.5q-12.5 13.5 -44.5 21.5l-135 35q-24 6 -46.5 16q-22.5 10 -40 26q-17.5 16 -28 39.5q-10.5 23.5 -10.5 56.5q0 72 54 116q54 44 152 44q48 0 87 -12q39 -12 66.5 -35.5q27.5 -23.5 43 -58q15.5 -34.5 15.5 -80.5l-110 0q0 44 -30.5 65q-30.5 21 -78.5 21q-48 0 -68.5 -16.5q-20.5 -16.5 -20.5 -38.5q0 -35 57 -50l134 -33q27 -7 50.5 -17.5q23.5 -10.5 40 -27q16.5 -16.5 26 -40q9.5 -23.5 9.5 -55.5q0 -37 -15.5 -67.5q-15.5 -30.5 -43.5 -52.5q-28 -22 -67.5 -34q-39.5 -12 -88.5 -12zt0 0zM286 730h99v-38l-90 -102l-89 0z" />
<glyph unicode="&#349;" horiz-adv-x="553" d="M278 -12q-52 0 -94 12.5q-42 12.5 -72 37q-30 24.5 -46 60q-16 35.5 -16 81.5l110 0q0 -45 35 -68q35 -23 92 -23q45 0 70.5 15.5q25.5 15.5 25.5 41.5q0 19 -12.5 32.5q-12.5 13.5 -44.5 21.5l-135 35q-24 6 -46.5 16q-22.5 10 -40 26q-17.5 16 -28 39.5q-10.5 23.5 -10.5 56.5q0 72 54 116q54 44 152 44q48 0 87 -12q39 -12 66.5 -35.5q27.5 -23.5 43 -58q15.5 -34.5 15.5 -80.5l-110 0q0 44 -30.5 65q-30.5 21 -78.5 21q-48 0 -68.5 -16.5q-20.5 -16.5 -20.5 -38.5q0 -35 57 -50l134 -33q27 -7 50.5 -17.5q23.5 -10.5 40 -27q16.5 -16.5 26 -40q9.5 -23.5 9.5 -55.5q0 -37 -15.5 -67.5q-15.5 -30.5 -43.5 -52.5q-28 -22 -67.5 -34q-39.5 -12 -88.5 -12zt0 0zM131 625l99 105h88l99 -105v-35h-84l-60 67l-60 -67l-82 0z" />
<glyph unicode="&#352;" horiz-adv-x="642" d="M317 -15q-55 0 -104 14.5q-49 14.5 -86.5 44.5q-37.5 30 -59.5 75.5q-22 45.5 -22 107.5l120 0q0 -39 15 -64.5q15 -25.5 38.5 -40.5q23.5 -15 51.5 -21q28 -6 54 -6q65 0 98 26q33 26 33 65q0 21 -10.5 35.5q-10.5 14.5 -30.5 27q-20 12.5 -50.5 24.5q-30.5 12 -70.5 27l-16 6q-50 19 -89 37q-39 18 -67 41.5q-28 23.5 -42.5 53.5q-14.5 30 -14.5 73q0 46 17.5 83.5q17.5 37.5 50 64.5q32.5 27 79 41.5q46.5 14.5 105.5 14.5q55 0 103 -13q48 -13 82.5 -41.5q34.5 -28.5 54.5 -73.5q20 -45 20 -108l-120 0q0 35 -12 59q-12 24 -31.5 39q-19.5 15 -45 21.5q-25.5 6.5 -52.5 6.5q-60 0 -95 -24q-35 -24 -35 -61q0 -22 9 -37.5q9 -15.5 28 -27.5q19 -12 47.5 -23q28.5 -11 66.5 -24l14 -5q46 -17 88.5 -34.5q42.5 -17.5 74 -41.5q31.5 -24 50.5 -56.5q19 -32.5 19 -78.5q0 -44 -16.5 -82q-16.5 -38 -50 -66q-33.5 -28 -83 -43.5q-49.5 -15.5 -115.5 -15.5zt0 0zM167 876v37h90l65 -82l64 82h88v-37l-106 -113l-95 0z" />
<glyph unicode="&#353;" horiz-adv-x="553" d="M278 -12q-52 0 -94 12.5q-42 12.5 -72 37q-30 24.5 -46 60q-16 35.5 -16 81.5l110 0q0 -45 35 -68q35 -23 92 -23q45 0 70.5 15.5q25.5 15.5 25.5 41.5q0 19 -12.5 32.5q-12.5 13.5 -44.5 21.5l-135 35q-24 6 -46.5 16q-22.5 10 -40 26q-17.5 16 -28 39.5q-10.5 23.5 -10.5 56.5q0 72 54 116q54 44 152 44q48 0 87 -12q39 -12 66.5 -35.5q27.5 -23.5 43 -58q15.5 -34.5 15.5 -80.5l-110 0q0 44 -30.5 65q-30.5 21 -78.5 21q-48 0 -68.5 -16.5q-20.5 -16.5 -20.5 -38.5q0 -35 57 -50l134 -33q27 -7 50.5 -17.5q23.5 -10.5 40 -27q16.5 -16.5 26 -40q9.5 -23.5 9.5 -55.5q0 -37 -15.5 -67.5q-15.5 -30.5 -43.5 -52.5q-28 -22 -67.5 -34q-39.5 -12 -88.5 -12zt0 0zM131 695v35h84l60 -77l60 77h82v-35l-99 -105l-88 0z" />
<glyph unicode="&#356;" horiz-adv-x="566" d="M223 595h-203v105h526v-105h-203v-595h-120zM130 876v37h90l65 -82l64 82h88v-37l-106 -113l-95 0z" />
<glyph unicode="&#357;" horiz-adv-x="523" d="M281 0q-54 0 -89.5 16q-35.5 16 -55.5 42q-20 26 -28 59.5q-8 33.5 -8 68.5v238h-80v96h80v108h110v-108h124v-96h-124v-239q0 -51 19.5 -70q19.5 -19 51.5 -19h53v-96h-53zM403 705h120v-50l-73 -160l-85 0z" />
<glyph unicode="&#362;" horiz-adv-x="690" d="M610 700v-472q0 -57 -18.5 -102.5q-18.5 -45.5 -53 -76.5q-34.5 -31 -83.5 -47.5q-49 -16.5 -110 -16.5q-61 0 -110 16.5q-49 16.5 -83.5 47.5q-34.5 31 -53 76.5q-18.5 45.5 -18.5 102.5v472h120v-478q0 -26 9 -49.5q9 -23.5 27 -40.5q18 -17 45.5 -27q27.5 -10 63.5 -10q36 0 63.5 10q27.5 10 45.5 27q18 17 27 40.5q9 23.5 9 49.5v478zM181 876h329v-97l-329 0z" />
<glyph unicode="&#363;" horiz-adv-x="591" d="M253 -12q-79 0 -128.5 51q-49.5 51 -49.5 146v335h110v-325q0 -56 27.5 -81.5q27.5 -25.5 66.5 -25.5q21 0 40 7q19 7 34.5 17q15.5 10 27.5 22q12 12 20 21l0 365h110v-520h-64l-42 58q-23 -27 -60 -48.5q-37 -21.5 -92 -21.5zt0 0zM140 695h307v-90l-307 0z" />
<glyph unicode="&#366;" horiz-adv-x="690" d="M610 700v-472q0 -57 -18.5 -102.5q-18.5 -45.5 -53 -76.5q-34.5 -31 -83.5 -47.5q-49 -16.5 -110 -16.5q-61 0 -110 16.5q-49 16.5 -83.5 47.5q-34.5 31 -53 76.5q-18.5 45.5 -18.5 102.5v472h120v-478q0 -26 9 -49.5q9 -23.5 27 -40.5q18 -17 45.5 -27q27.5 -10 63.5 -10q36 0 63.5 10q27.5 10 45.5 27q18 17 27 40.5q9 23.5 9 49.5v478zM346 803q18 0 32 13q14 13 14 31q0 18 -14 31q-14 13 -32 13q-18 0 -32 -13q-14 -13 -14 -31q0 -18 14 -31q14 -13 32 -13zt0 0zM346 738q-23 0 -44 9q-21 9 -37 23.5q-16 14.5 -25.5 34q-9.5 19.5 -9.5 42.5q0 22 9.5 42q9.5 20 25.5 34.5q16 14.5 37 23q21 8.5 44 8.5q24 0 44.5 -8.5q20.5 -8.5 37 -23q16.5 -14.5 25.5 -34.5q9 -20 9 -42q0 -23 -9 -42.5q-9 -19.5 -25.5 -34q-16.5 -14.5 -37 -23.5t-44.5 -9z" />
<glyph unicode="&#367;" horiz-adv-x="591" d="M253 -12q-79 0 -128.5 51q-49.5 51 -49.5 146v335h110v-325q0 -56 27.5 -81.5q27.5 -25.5 66.5 -25.5q21 0 40 7q19 7 34.5 17q15.5 10 27.5 22q12 12 20 21l0 365h110v-520h-64l-42 58q-23 -27 -60 -48.5q-37 -21.5 -92 -21.5zt0 0zM293 627q17 0 30 12q13 12 13 29q0 17 -13 29q-13 12 -30 12q-17 0 -30 -12q-13 -12 -13 -29q0 -17 13 -29q13 -12 30 -12zt0 0zM293 567q-22 0 -41.5 8q-19.5 8 -34.5 21.5q-15 13.5 -23.5 32q-8.5 18.5 -8.5 39.5q0 21 8.5 39.5q8.5 18.5 23.5 32q15 13.5 34.5 21.5q19.5 8 41.5 8q22 0 41.5 -8q19.5 -8 34.5 -21.5q15 -13.5 23.5 -32q8.5 -18.5 8.5 -39.5q0 -21 -8.5 -39.5q-8.5 -18.5 -23.5 -32q-15 -13.5 -34.5 -21.5t-41.5 -8z" />
<glyph unicode="&#368;" horiz-adv-x="690" d="M610 700v-472q0 -57 -18.5 -102.5q-18.5 -45.5 -53 -76.5q-34.5 -31 -83.5 -47.5q-49 -16.5 -110 -16.5q-61 0 -110 16.5q-49 16.5 -83.5 47.5q-34.5 31 -53 76.5q-18.5 45.5 -18.5 102.5v472h120v-478q0 -26 9 -49.5q9 -23.5 27 -40.5q18 -17 45.5 -27q27.5 -10 63.5 -10q36 0 63.5 10q27.5 10 45.5 27q18 17 27 40.5q9 23.5 9 49.5v478zM270 913h106v-40l-96 -110h-96zM457 913h106v-40l-97 -110l-95 0z" />
<glyph unicode="&#369;" horiz-adv-x="591" d="M253 -12q-79 0 -128.5 51q-49.5 51 -49.5 146v335h110v-325q0 -56 27.5 -81.5q27.5 -25.5 66.5 -25.5q21 0 40 7q19 7 34.5 17q15.5 10 27.5 22q12 12 20 21l0 365h110v-520h-64l-42 58q-23 -27 -60 -48.5q-37 -21.5 -92 -21.5zt0 0zM226 730h99v-38l-90 -102h-89zM400 730h99v-38l-90 -102l-89 0z" />
<glyph unicode="&#370;" horiz-adv-x="690" d="M482 -160q-48 0 -75.5 19.5q-27.5 19.5 -27.5 53.5q0 17 10.5 37.5q10.5 20.5 33.5 43.5q-38 -9 -78 -9q-50 0 -98 13q-48 13 -85 41.5q-37 28.5 -59.5 72q-22.5 43.5 -22.5 105.5v483h120v-483q0 -60 40 -91q40 -31 105 -31q66 0 105.5 29.5q39.5 29.5 39.5 92.5v483h120v-483q0 -44 -12.5 -79q-12.5 -35 -30.5 -61q-18 -26 -38 -45q-20 -19 -35 -32q-42 -34 -42 -61q0 -32 52 -32h34v-67l-56 0z" />
<glyph unicode="&#371;" horiz-adv-x="591" d="M499 -160q-48 0 -75.5 19.5q-27.5 19.5 -27.5 53.5q0 18 12 40q12 22 39 47l-42 58q-23 -27 -60 -48.5q-37 -21.5 -92 -21.5q-79 0 -128.5 51q-49.5 51 -49.5 146v335h110v-325q0 -56 27.5 -81.5q27.5 -25.5 66.5 -25.5q21 0 40 7q19 7 34.5 17q15.5 10 27.5 22q12 12 20 21l0 365h110v-520q-23 -18 -32.5 -32.5q-9.5 -14.5 -9.5 -28.5q0 -32 52 -32h34v-67l-56 0z" />
<glyph unicode="&#376;" horiz-adv-x="614" d="M247 277l-237 383v40h118l180 -310l186 310h110v-40l-237 -378v-282h-120zM144 889h118v-118h-118zM355 889h118v-118l-118 0z" />
<glyph unicode="&#377;" horiz-adv-x="586" d="M40 104l358 491h-343v105h481v-103l-359 -492h369v-105h-506zM303 913h106v-41l-96 -110l-96 0z" />
<glyph unicode="&#378;" horiz-adv-x="528" d="M50 96l274 328h-265v96h397v-96l-276 -328h288v-96h-418zM263 730h99v-38l-90 -102l-89 0z" />
<glyph unicode="&#379;" horiz-adv-x="586" d="M40 104l358 491h-343v105h481v-103l-359 -492h369v-105h-506zM232 886h118v-118l-118 0z" />
<glyph unicode="&#380;" horiz-adv-x="528" d="M50 96l274 328h-265v96h397v-96l-276 -328h288v-96h-418zM195 705h110v-110l-110 0z" />
<glyph unicode="&#381;" horiz-adv-x="586" d="M40 104l358 491h-343v105h481v-103l-359 -492h369v-105h-506zM144 876v37h90l65 -82l64 82h88v-37l-106 -113l-95 0z" />
<glyph unicode="&#382;" horiz-adv-x="528" d="M50 96l274 328h-265v96h397v-96l-276 -328h288v-96h-418zM109 695v35h84l60 -77l60 77h82v-35l-99 -105l-88 0z" />
<glyph unicode="&#402;" horiz-adv-x="372" d="M122 520l1 9q4 38 14.5 70.5q10.5 32.5 32 56.5q21.5 24 56.5 37.5q35 13.5 89 13.5q9 0 19 -0.5q10 -0.5 18 -1.5l0 -96h-23q-51 0 -71 -19q-20 -19 -25 -61l-1 -9h120v-96h-128l-32 -409q-3 -38 -12.5 -72q-9.5 -34 -29.5 -59.5q-20 -25.5 -52 -40.5q-32 -15 -80 -15q-9 0 -18.5 0q-9.5 0 -19.5 2l0 96h5q53 0 73 20.5q20 20.5 24 68.5l32 409h-72l0 96z" />
<glyph unicode="&#537;" horiz-adv-x="553" d="M278 -12q-52 0 -94 12.5q-42 12.5 -72 37q-30 24.5 -46 60q-16 35.5 -16 81.5l110 0q0 -45 35 -68q35 -23 92 -23q45 0 70.5 15.5q25.5 15.5 25.5 41.5q0 19 -12.5 32.5q-12.5 13.5 -44.5 21.5l-135 35q-24 6 -46.5 16q-22.5 10 -40 26q-17.5 16 -28 39.5q-10.5 23.5 -10.5 56.5q0 72 54 116q54 44 152 44q48 0 87 -12q39 -12 66.5 -35.5q27.5 -23.5 43 -58q15.5 -34.5 15.5 -80.5l-110 0q0 44 -30.5 65q-30.5 21 -78.5 21q-48 0 -68.5 -16.5q-20.5 -16.5 -20.5 -38.5q0 -35 57 -50l134 -33q27 -7 50.5 -17.5q23.5 -10.5 40 -27q16.5 -16.5 26 -40q9.5 -23.5 9.5 -55.5q0 -37 -15.5 -67.5q-15.5 -30.5 -43.5 -52.5q-28 -22 -67.5 -34q-39.5 -12 -88.5 -12zt0 0zM223 -67h110v-50l-67 -160l-77 0z" />
<glyph unicode="&#710;" horiz-adv-x="406" d="M60 625l99 105h88l99 -105v-35h-84l-60 67l-60 -67l-82 0z" />
<glyph unicode="&#711;" horiz-adv-x="406" d="M60 695v35h84l60 -77l60 77h82v-35l-99 -105l-88 0z" />
<glyph unicode="&#728;" horiz-adv-x="406" d="M203 571q-72 0 -116.5 35.5q-44.5 35.5 -44.5 101.5v12h94v-11q0 -26 16.5 -42q16.5 -16 50.5 -16q35 0 51.5 16q16.5 16 16.5 42v11h93v-12q0 -66 -44.5 -101.5t-116.5 -35.5z" />
<glyph unicode="&#729;" horiz-adv-x="230" d="M60 705h110v-110l-110 0z" />
<glyph unicode="&#730;" horiz-adv-x="336" d="M168 627q17 0 30 12q13 12 13 29q0 17 -13 29q-13 12 -30 12q-17 0 -30 -12q-13 -12 -13 -29q0 -17 13 -29q13 -12 30 -12zt0 0zM168 567q-22 0 -41.5 8q-19.5 8 -34.5 21.5q-15 13.5 -23.5 32q-8.5 18.5 -8.5 39.5q0 21 8.5 39.5q8.5 18.5 23.5 32q15 13.5 34.5 21.5q19.5 8 41.5 8q22 0 41.5 -8q19.5 -8 34.5 -21.5q15 -13.5 23.5 -32q8.5 -18.5 8.5 -39.5q0 -21 -8.5 -39.5q-8.5 -18.5 -23.5 -32q-15 -13.5 -34.5 -21.5t-41.5 -8z" />
<glyph unicode="&#731;" horiz-adv-x="281" d="M153 -160q-48 0 -75.5 19.5q-27.5 19.5 -27.5 53.5q0 18 12 40q12 22 39 47l64 0q-23 -18 -32.5 -32.5q-9.5 -14.5 -9.5 -28.5q0 -32 52 -32h34v-67l-56 0z" />
<glyph unicode="&#732;" horiz-adv-x="484" d="M60 634q23 44 49.5 71q26.5 27 59.5 27q22 0 40 -6.5q18 -6.5 32 -16.5l16 -11q13 -9 25 -14.5q12 -5.5 25 -5.5q11 0 22 10q11 10 29 39l66 -40q-23 -44 -49.5 -71q-26.5 -27 -59.5 -27q-19 0 -35.5 5.5q-16.5 5.5 -28.5 13.5l-17 10q-16 9 -29.5 17q-13.5 8 -27.5 8q-11 0 -22 -10q-11 -10 -29 -39z" />
<glyph unicode="&#733;" horiz-adv-x="473" d="M140 730h99v-38l-90 -102h-89zM314 730h99v-38l-90 -102l-89 0z" />
<glyph unicode="&#937;" horiz-adv-x="722" d="M70 105h97q-50 32 -65.5 76q-15.5 44 -15.5 97v185q0 60 19.5 106.5q19.5 46.5 55 79q35.5 32.5 86.5 49.5q51 17 114 17q63 0 114 -17q51 -17 86.5 -49.5q35.5 -32.5 55 -79q19.5 -46.5 19.5 -106.5v-185q0 -53 -15.5 -97q-15.5 -44 -65.5 -76l97 0v-105h-238v110q28 7 47.5 24q19.5 17 31.5 40q12 23 17.5 49.5q5.5 26.5 5.5 52.5v193q0 28 -9.5 53q-9.5 25 -29 43.5q-19.5 18.5 -48.5 29q-29 10.5 -68 10.5q-39 0 -68 -10.5q-29 -10.5 -48.5 -29q-19.5 -18.5 -29 -43.5q-9.5 -25 -9.5 -53v-193q0 -26 5.5 -52.5q5.5 -26.5 17.5 -49.5q12 -23 31.5 -40q19.5 -17 47.5 -24l0 -110l-238 0z" />
<glyph unicode="&#960;" horiz-adv-x="694" d="M130 424h-100v96h634v-96h-100v-424h-110v424h-214v-424l-110 0z" />
<glyph unicode="&#1025;" horiz-adv-x="590" d="M90 700h449v-105h-329v-194h282v-100h-282v-196h330v-105h-450zM149 886h118v-118h-118zM361 886h117v-118l-117 0z" />
<glyph unicode="&#1026;" horiz-adv-x="748" d="M194 595h-174v105h526v-105h-232v-174q37 7 69.5 9.5q32.5 2.5 63.5 2.5q63 0 111 -16q48 -16 80.5 -44.5q32.5 -28.5 48.5 -68.5q16 -40 16 -88q0 -49 -13.5 -89q-13.5 -40 -39.5 -68q-26 -28 -65 -43.5q-39 -15.5 -90 -15.5h-66v105h50q53 0 77.5 29.5q24.5 29.5 24.5 79.5q0 54 -38.5 81.5q-38.5 27.5 -104.5 27.5q-37 0 -64.5 -3q-27.5 -3 -59.5 -8l0 -312l-120 0z" />
<glyph unicode="&#1027;" horiz-adv-x="565" d="M90 700h435v-105h-315v-595h-120zM323 913h106v-41l-96 -110l-96 0z" />
<glyph unicode="&#1028;" horiz-adv-x="661" d="M347 -15q53 0 99 16q46 16 80.5 46.5q34.5 30.5 54.5 75.5q20 45 20 104l-111 0q0 -35 -14 -60q-14 -25 -35 -41q-21 -16 -46.5 -23.5q-25.5 -7.5 -48.5 -7.5q-78 0 -117 35.5q-39 35.5 -39 98.5v71h243v100h-243v71q0 63 39 98.5q39 35.5 117 35.5q28 0 54 -9q26 -9 46 -26q20 -17 32 -41.5q12 -24.5 12 -55.5l111 0q0 63 -21.5 109q-21.5 46 -57.5 75.5q-36 29.5 -81.5 43.5q-45.5 14 -93.5 14q-131 0 -204 -66q-73 -66 -73 -186v-226q0 -120 73 -186t204 -66z" />
<glyph unicode="&#1029;" horiz-adv-x="642" d="M317 -15q-55 0 -104 14.5q-49 14.5 -86.5 44.5q-37.5 30 -59.5 75.5q-22 45.5 -22 107.5l120 0q0 -39 15 -64.5q15 -25.5 38.5 -40.5q23.5 -15 51.5 -21q28 -6 54 -6q65 0 98 26q33 26 33 65q0 21 -10.5 35.5q-10.5 14.5 -30.5 27q-20 12.5 -50.5 24.5q-30.5 12 -70.5 27l-16 6q-50 19 -89 37q-39 18 -67 41.5q-28 23.5 -42.5 53.5q-14.5 30 -14.5 73q0 46 17.5 83.5q17.5 37.5 50 64.5q32.5 27 79 41.5q46.5 14.5 105.5 14.5q55 0 103 -13q48 -13 82.5 -41.5q34.5 -28.5 54.5 -73.5q20 -45 20 -108l-120 0q0 35 -12 59q-12 24 -31.5 39q-19.5 15 -45 21.5q-25.5 6.5 -52.5 6.5q-60 0 -95 -24q-35 -24 -35 -61q0 -22 9 -37.5q9 -15.5 28 -27.5q19 -12 47.5 -23q28.5 -11 66.5 -24l14 -5q46 -17 88.5 -34.5q42.5 -17.5 74 -41.5q31.5 -24 50.5 -56.5q19 -32.5 19 -78.5q0 -44 -16.5 -82q-16.5 -38 -50 -66q-33.5 -28 -83 -43.5t-115.5 -15.5z" />
<glyph unicode="&#1030;" horiz-adv-x="300" d="M90 700h120v-700l-120 0z" />
<glyph unicode="&#1031;" horiz-adv-x="300" d="M90 700h120v-700h-120zM-14 886h118v-118h-118zM198 886h117v-118l-117 0z" />
<glyph unicode="&#1032;" horiz-adv-x="580" d="M260 -15q-51 0 -95 11.5q-44 11.5 -76.5 38q-32.5 26.5 -50.5 68.5q-18 42 -18 104v30h120v-30q0 -60 32.5 -86q32.5 -26 87.5 -26q24 0 45.5 6.5q21.5 6.5 38 20.5q16.5 14 26.5 36q10 22 10 53v489h120v-493q0 -60 -19 -102q-19 -42 -51.5 -68.5q-32.5 -26.5 -76 -39t-93.5 -12.5z" />
<glyph unicode="&#1033;" horiz-adv-x="1011" d="M259 326q0 -168 -56.5 -247q-56.5 -79 -161.5 -79h-23v110h19q32 0 53.5 13q21.5 13 34.5 42q13 29 18.5 77q5.5 48 5.5 119v339h437v-270h169q104 0 157.5 -58.5q53.5 -58.5 53.5 -156.5q0 -98 -53.5 -156.5q-53.5 -58.5 -157.5 -58.5h-289v595h-207zM753 105q45 0 68 29.5q23 29.5 23 80.5q0 51 -23 80.5q-23 29.5 -68 29.5h-167l0 -220z" />
<glyph unicode="&#1034;" horiz-adv-x="1045" d="M90 700h120v-270h290v270h120v-270h169q104 0 157.5 -58.5q53.5 -58.5 53.5 -156.5q0 -98 -53.5 -156.5q-53.5 -58.5 -157.5 -58.5h-289v325h-290v-325h-120zM787 105q45 0 68 29.5q23 29.5 23 80.5q0 51 -23 80.5q-23 29.5 -68 29.5h-167l0 -220z" />
<glyph unicode="&#1035;" horiz-adv-x="761" d="M194 595h-174v105h526v-105h-232v-174q31 6 64 9q33 3 66 3q47 0 93 -8.5q46 -8.5 82.5 -32q36.5 -23.5 59 -64.5q22.5 -41 22.5 -105v-223h-120v209q0 55 -34 84.5q-34 29.5 -112 29.5q-35 0 -63.5 -3q-28.5 -3 -57.5 -9l0 -311l-120 0z" />
<glyph unicode="&#1036;" horiz-adv-x="627" d="M90 700h120v-297h89l183 297h111v-40l-189 -303l203 -317v-40h-118l-190 298h-89v-298h-120zM354 913h106v-41l-96 -110l-96 0z" />
<glyph unicode="&#1038;" horiz-adv-x="579" d="M164 40l75 165l-229 455v40h119l172 -360l156 360h112v-40l-296 -660h-109zM291 742q-72 0 -116.5 34q-44.5 34 -44.5 100v12h94v-11q0 -26 16.5 -42q16.5 -16 50.5 -16q35 0 51.5 16q16.5 16 16.5 42v11h93v-12q0 -66 -44.5 -100t-116.5 -34z" />
<glyph unicode="&#1039;" horiz-adv-x="704" d="M297 0h-207v700h120v-595h284v595h120v-700h-207v-140l-110 0z" />
<glyph unicode="&#1040;" horiz-adv-x="658" d="M20 40l250 660h118l250 -660v-40h-118l-62 173h-264l-63 -173h-111zM422 273l-95 267l-97 -267z" />
<glyph unicode="&#1041;" horiz-adv-x="662" d="M90 700h480v-105h-360v-165h205q94 0 145.5 -58q51.5 -58 51.5 -157q0 -99 -51.5 -157q-51.5 -58 -145.5 -58h-325zM394 105q39 0 67.5 27q28.5 27 28.5 83q0 56 -28.5 83q-28.5 27 -67.5 27h-184l0 -220z" />
<glyph unicode="&#1042;" horiz-adv-x="662" d="M90 700h295q93 0 146.5 -46.5q53.5 -46.5 53.5 -141.5q0 -59 -22 -94q-22 -35 -62 -55q23 -8 43 -21q20 -13 35 -33.5q15 -20.5 24 -48.5q9 -28 9 -66q0 -97 -53 -145.5q-53 -48.5 -147 -48.5h-322zM392 105q100 0 100 96q0 48 -24.5 73.5q-24.5 25.5 -75.5 25.5h-182v-195zM365 400q50 0 74.5 25q24.5 25 24.5 73q0 97 -99 97h-155l0 -195z" />
<glyph unicode="&#1043;" horiz-adv-x="565" d="M90 700h435v-105h-315v-595l-120 0z" />
<glyph unicode="&#1044;" horiz-adv-x="707" d="M25 105h54q15 19 29.5 42.5q14.5 23.5 25.5 56.5q11 33 18 78.5q7 45.5 7 108.5v309h431v-595h82v-245h-110v140h-427v-140h-110zM470 105v490h-201v-204q0 -61 -5.5 -105.5q-5.5 -44.5 -14 -77.5q-8.5 -33 -19.5 -57.5q-11 -24.5 -22 -45.5z" />
<glyph unicode="&#1045;" horiz-adv-x="590" d="M90 700h449v-105h-329v-194h282v-100h-282v-196h330v-105l-450 0z" />
<glyph unicode="&#1046;" horiz-adv-x="927" d="M404 298h-96l-156 -298h-121v40l173 316l-159 304v40h110l156 -297h93v297h120v-297h93l156 297h110v-40l-159 -304l173 -316v-40h-121l-156 298h-96v-298l-120 0z" />
<glyph unicode="&#1047;" horiz-adv-x="624" d="M321 -15q-54 0 -103.5 14q-49.5 14 -86.5 43.5q-37 29.5 -59 75.5q-22 46 -22 109l120 0q0 -35 12.5 -60q12.5 -25 34 -41q21.5 -16 49.5 -23.5q28 -7.5 59 -7.5q62 0 95 27q33 27 33 79q0 50 -33 75.5q-33 25.5 -92 25.5h-93v100h93q51 0 80 24.5q29 24.5 29 71.5q0 45 -30 76q-30 31 -90 31q-26 0 -49.5 -7.5q-23.5 -7.5 -41.5 -23.5q-18 -16 -28.5 -41q-10.5 -25 -10.5 -60l-120 0q0 63 20 109q20 46 54 75.5q34 29.5 79.5 43.5q45.5 14 96.5 14q58 0 103 -15q45 -15 75.5 -42q30.5 -27 46.5 -64.5q16 -37.5 16 -82.5q0 -58 -27.5 -95.5q-27.5 -37.5 -67.5 -59.5q46 -17 78.5 -54.5q32.5 -37.5 32.5 -100.5q0 -49 -17 -88.5q-17 -39.5 -49 -68q-32 -28.5 -79.5 -44t-107.5 -15.5z" />
<glyph unicode="&#1048;" horiz-adv-x="714" d="M90 700h120v-485l304 485h110v-700h-120v485l-304 -485l-110 0z" />
<glyph unicode="&#1049;" horiz-adv-x="714" d="M90 700h120v-485l304 485h110v-700h-120v485l-304 -485h-110zM357 742q-72 0 -116.5 34q-44.5 34 -44.5 100v12h94v-11q0 -26 16.5 -42q16.5 -16 50.5 -16q35 0 51.5 16q16.5 16 16.5 42v11h93v-12q0 -66 -44.5 -100t-116.5 -34z" />
<glyph unicode="&#1050;" horiz-adv-x="627" d="M90 700h120v-297h89l183 297h111v-40l-189 -303l203 -317v-40h-118l-190 298h-89v-298l-120 0z" />
<glyph unicode="&#1051;" horiz-adv-x="668" d="M10 110h19q32 0 53.5 13q21.5 13 34.5 42q13 29 18.5 77q5.5 48 5.5 119v339h437v-700h-120v595h-207v-269q0 -168 -56.5 -247q-56.5 -79 -161.5 -79l-23 0z" />
<glyph unicode="&#1052;" horiz-adv-x="810" d="M367 226l-161 261v-487h-116v700h116l201 -327l201 327h112v-700h-116v487l-160 -261z" />
<glyph unicode="&#1053;" horiz-adv-x="710" d="M90 700h120v-297h290v297h120v-700h-120v298h-290v-298l-120 0z" />
<glyph unicode="&#1054;" horiz-adv-x="690" d="M345 95q39 0 68 10.5q29 10.5 48.5 29q19.5 18.5 29 43.5q9.5 25 9.5 53v238q0 28 -9.5 53q-9.5 25 -29 43.5q-19.5 18.5 -48.5 29q-29 10.5 -68 10.5q-39 0 -68 -10.5q-29 -10.5 -48.5 -29q-19.5 -18.5 -29 -43.5q-9.5 -25 -9.5 -53v-238q0 -28 9.5 -53q9.5 -25 29 -43.5q19.5 -18.5 48.5 -29q29 -10.5 68 -10.5zt0 0zM345 -15q-63 0 -114 17q-51 17 -86.5 49.5q-35.5 32.5 -55 79q-19.5 46.5 -19.5 106.5v226q0 60 19.5 106.5q19.5 46.5 55 79q35.5 32.5 86.5 49.5q51 17 114 17q63 0 114 -17q51 -17 86.5 -49.5q35.5 -32.5 55 -79q19.5 -46.5 19.5 -106.5v-226q0 -60 -19.5 -106.5q-19.5 -46.5 -55 -79q-35.5 -32.5 -86.5 -49.5t-114 -17z" />
<glyph unicode="&#1055;" horiz-adv-x="704" d="M90 700h524v-700h-120v595h-284v-595l-120 0z" />
<glyph unicode="&#1056;" horiz-adv-x="635" d="M90 700h303q94 0 145.5 -58q51.5 -58 51.5 -157q0 -99 -51.5 -157q-51.5 -58 -145.5 -58h-183v-270h-120zM372 375q39 0 67.5 27q28.5 27 28.5 83q0 56 -28.5 83q-28.5 27 -67.5 27h-162l0 -220z" />
</font>
</defs>
</svg>
